<?xml version="1.0" standalone="no"?>
<!DOCTYPE svg PUBLIC "-//W3C//DTD SVG 1.1//EN" "http://www.w3.org/Graphics/SVG/1.1/DTD/svg11.dtd" >
<svg xmlns="http://www.w3.org/2000/svg">
<metadata>
This is a custom SVG webfont generated by Font Squirrel.
Copyright   :  2007 Igino Marini
Designer    : Igino Marini
Foundry     : Igino Marini
Foundry URL : wwwiginomarinicom
</metadata>
<defs>
<font id="webfontxmOYEZXO" horiz-adv-x="1304" >
<font-face units-per-em="2048" ascent="1638" descent="-410" />
<missing-glyph horiz-adv-x="439" />
<glyph unicode=" "  horiz-adv-x="439" />
<glyph unicode="&#x09;" horiz-adv-x="439" />
<glyph unicode="&#xa0;" horiz-adv-x="439" />
<glyph unicode="!" horiz-adv-x="593" d="M200 682v1l14 28v42q0 24 -6.5 66.5t-7.5 64.5v95q0 5 -7 43t-7 42v9q0 8 3.5 21t3.5 20v4q-7 77 -7 83q0 2 -4 15l-3 12v4v3q0 2 3.5 20.5t3.5 19.5v161q4 42 40.5 90t77.5 48q54 0 104 -69q1 -4 6.5 -15.5t5.5 -12.5v-12v-29q0 -1 3.5 -11t3.5 -12q1 -8 1 -12v-8l-1 -7 q0 -12 -6 -79t-8 -79v-53q0 -3 -6 -15.5t-6 -14.5q-1 -1 -2.5 -10.5l-3.5 -22t-3 -15.5q0 -9 -3.5 -57.5t-3.5 -75.5q0 -14 4.5 -41t4.5 -42q0 -33 -2 -40q-11 -11 -18.5 -32.5t-7.5 -35.5q0 -1 3.5 -20.5t3.5 -22.5q0 -2 -7 -40q-7 -10 -7 -20q-2 -8 -6 -27t-7.5 -30 t-10 -24t-18 -19t-27.5 -6q-29 0 -59.5 42.5t-30.5 75.5zM228 7q-4 2 -14.5 12.5t-13.5 15.5q0 1 -3.5 10t-3.5 10q-4 11 -19 22t-15 18v9q0 8 1.5 28t3 36t1.5 17q1 6 3.5 12.5t5.5 11.5t8.5 11t9.5 9.5t11.5 9.5t10.5 8l11 7.5t10 6.5q5 2 38 2q52 0 99 -18.5t70 -59.5 v-34q0 -61 -7 -75q-2 0 -43 -48q-29 -35 -50 -35h-4q-1 0 -14 3.5t-15 3.5q-42 7 -81 7z" />
<glyph unicode="&#x22;" horiz-adv-x="1017" d="M95 882q0 24 6.5 38.5t15 20t24 14t25.5 17.5q57 57 61 64q43 51 43 97q0 47 -21 54q-2 1 -13 2.5t-22 3.5t-13 2q-18 3 -33.5 13t-20.5 15t-24 26q-5 6 -22.5 24t-24.5 33v35q0 48 16 72.5t60 43.5q59 23 69 29h18q30 0 92.5 -29.5t75.5 -53.5q10 -30 15 -35 q2 -7 12 -28.5t16.5 -39t6.5 -28.5q0 -9 -4.5 -25.5t-4.5 -25.5t4.5 -27t4.5 -28q0 -43 -7 -67q-7 -7 -9 -7l-10.5 -21.5t-11.5 -24.5t-11 -22t-13.5 -24t-13.5 -20t-16 -20q-3 -4 -14.5 -14.5t-18.5 -20.5t-7 -22l-41 -12q-2 0 -21 -3.5t-21 -3.5q-1 -1 -8 -4t-13 -6.5 t-6 -5.5q-5 0 -29 -6t-29 -6h-22h-24q-16 4 -16 26zM588 882q0 24 6.5 38.5t15 20t24 14t25.5 17.5q57 57 61 64q43 51 43 97q0 47 -21 54q-2 1 -13 2.5t-22 3.5t-13 2q-18 3 -33.5 13t-20.5 15t-24 26q-5 6 -22.5 24t-24.5 33v35q0 48 16 72.5t60 43.5q59 23 69 29h18 q30 0 92.5 -29.5t75.5 -53.5q10 -30 15 -35q2 -7 12 -28.5t16.5 -39t6.5 -28.5q0 -9 -4.5 -25.5t-4.5 -25.5t4.5 -27t4.5 -28q0 -43 -7 -67q-7 -7 -9 -7l-10.5 -21.5t-11.5 -24.5t-11 -22t-13.5 -24t-13.5 -20t-16 -20q-3 -4 -14.5 -14.5t-18.5 -20.5t-7 -22l-41 -12 q-3 0 -21 -3.5t-21 -3.5q-1 -1 -8 -4t-13 -6.5t-6 -5.5q-5 0 -29 -6t-29 -6h-22h-24q-16 4 -16 26z" />
<glyph unicode="#" horiz-adv-x="1644" d="M767 163q0 23 20 57t22 53q1 19 3 29t6.5 20t5.5 12q8 10 13 28q1 5 2.5 11.5t2 9.5t3 8t7 11t12.5 15q-1 9 -1 22q0 18 1 32q0 2 3.5 9t3.5 10q-3 1 -8 1q-29 0 -130 -14l-95 13q-25 0 -25 -9h-64q0 -18 -13 -26q-3 -1 -9.5 -7.5t-9.5 -6.5q0 -5 0.5 -13t0.5 -11 q0 -35 -14 -43q0 -73 -7 -89q-1 -3 -11.5 -11.5t-15.5 -10.5q-11 -17 -11 -45q0 -14 -1 -17q-5 -19 -16 -29t-14 -27l-53 -20q-10 0 -32 30.5t-22 36.5q0 24 15 56t18 48l2 14q3 13 7 17q1 10 9.5 28t10.5 29q0 20 5 45q1 2 14 15t14 18q0 17 -5 17q-33 -17 -48 -17 q-6 2 -16 2q-15 0 -36 -8t-35 -8l-66 9l-38 -7q-97 0 -97 52q0 16 17 42.5t32 35.5q79 12 143 12q59 0 89 -2q36 -10 43 -10q42 12 64 36t26 48t12 63.5t22 68.5q4 9 17 18t13 23q-2 6 -2 7q-8 0 -12.5 1t-11 3.5t-16.5 4.5q-16 -4 -24 -4l-38 7q-12 0 -36.5 -13.5 t-37.5 -13.5l-63 15q-37 -10 -38 -10q-35 0 -65 12.5t-30 42.5q0 16 16 43.5t31 34.5h28l204 10l39 -12q11 0 32 8.5t31 10.5q4 0 15 -3.5t12 -3.5q6 2 6 7q46 76 67 179v26q0 3 5.5 11t6.5 11q16 13 16 33q0 78 95 135q25 0 36.5 -26t11.5 -47q0 -10 -8.5 -19t-8.5 -12 q6 -12 10 -40q0 -12 -4.5 -19.5t-13 -14.5t-11.5 -12q-3 -7 -11 -37.5t-8 -39.5q0 -39 -21.5 -76.5t-25.5 -51.5l135 -7h75q99 0 129 23l10 29q11 29 21 59t9 35v31q2 6 18.5 20t16.5 25q0 22 6 45t13 37t19.5 36.5t16.5 31.5q18 4 24 4q33 0 33 -9q12 -24 31 -43 q0 -7 -10 -32l-10 -25q1 -16 1 -33q0 -13 -1.5 -18.5t-9 -13t-11.5 -13.5q-6 -8 -10 -27.5t-13 -38.5l7 -33q0 -19 -6.5 -40.5t-19.5 -26.5l68 5q6 0 18.5 -7.5t22.5 -7.5q6 0 23.5 7.5t28.5 7.5l102 -5l76 5q28 0 40 -48q-55 -68 -131 -68q-18 0 -18 2q-40 -6 -60 -14 q-23 -9 -30 -9q-11 0 -20 9q-21 -2 -31 -2q-44 0 -47 2q-42 -21 -61 -21q-24 6 -38 6q-16 -15 -26 -33t-12.5 -30t-6 -38.5t-5.5 -37.5q-5 -13 -31 -50t-26 -43q4 -18 9 -23q35 12 122 12l39 -12q7 0 24.5 6t28.5 6l102 -7l76 7q30 0 42 -46q-50 -71 -133 -71q-3 0 -7.5 1 t-7.5 3l-4 1q-1 0 -13 -5t-15 -5q-10 0 -33 -7q-13 -6 -24 -6q-31 6 -36 6q-7 -2 -20 -2q-45 0 -46 2q-24 -21 -59 -21l-78 15q-9 -7 -9 -34l-32 -76q-9 -16 -9 -54q0 -19 -3.5 -32.5t-7.5 -20t-16.5 -23t-19.5 -26.5q-5 -12 -5 -16q0 -9 1 -16.5t1 -9.5q0 -3 -1 -7t-1 -5 q-2 -4 -9.5 -13.5t-11.5 -10.5q0 -3 -3.5 -14t-3.5 -14q-26 -15 -53 -15q-11 0 -33.5 27.5t-22.5 38.5zM835 862l-94 15q-53 0 -67.5 -17.5t-18.5 -70.5q-1 -10 -3.5 -19t-5.5 -15t-6.5 -11l-5.5 -8l-2 -2q-5 -10 -5 -33q-8 -14 -19 -21.5t-16 -13.5t-5 -19q-3 -3 -3 -28 v-29l170 10q22 0 91 -10q61 0 82 10q2 0 11.5 33l20.5 74t14 49q4 8 10.5 9t10.5 8q17 35 17 87q-24 26 -52 26z" />
<glyph unicode="$" horiz-adv-x="1117" d="M475 893q0 -1 2.5 -3t2.5 -4q3 39 13 83q-12 31 -13 34l13 42q0 6 -6.5 23.5t-6.5 28.5l7 98l-5 94h-7q-55 -35 -112 -97v-14q0 -12 -3.5 -30t-3.5 -30v-11q0 -1 3.5 -13t3.5 -13q1 -8 1.5 -28.5t1.5 -28t5.5 -21t12.5 -27.5q12 -9 15 -14q20 -20 76 -69zM591 586 q-3 0 -3 2v-10q0 -16 7 -51t7 -53l-4 -33v-33t-0.5 -21t-1 -11t-0.5 -6v-3q5 -9 17.5 -70t12.5 -76l-14 -50q0 -11 2.5 -22.5t2.5 -17.5l-2 -8q14 3 38 13.5t30 12.5q1 1 13.5 4t14.5 3l9 8q10 9 13 12q9 16 28 35q0 31 7 35q0 2 6 15t6 14q7 17 7 40q0 3 -3.5 15.5 t-3.5 13.5q-7 42 -7 90q-2 12 -49 63q-25 34 -60 48q-14 7 -23 7q-24 24 -34 28q-12 6 -16 6zM512 -119v53v50q-95 4 -156 19q-14 4 -35.5 20.5t-33.5 21.5q-7 3 -32 11.5t-46.5 17t-25.5 12.5l-55 63q-7 17 -7 45q0 34 16 90t18 65l4.5 23t5.5 25.5t8.5 18.5t16.5 18 q32 7 55 7q4 0 11.5 -5t9.5 -9q10 -17 48 -112l7 -54q3 -15 10.5 -25t21 -20.5t19.5 -16.5q5 -6 12.5 -20t13 -21t17 -14t26.5 -7q16 -4 65 -9q0 34 -3 67q-1 13 -5.5 52.5t-4.5 63.5l15 38q0 8 -7.5 23.5t-7.5 28.5q7 76 7 137q0 48 -6 97v12l-26 17q-40 23 -112.5 80 t-110.5 79l-31.5 49.5l-30.5 47.5q-16 24 -21 42v52q0 94 14 149q16 56 76 124t111 87q31 0 43 5q4 0 31 7t31 7h9l-3 93q0 31 19 35q7 0 19.5 1.5t18.5 1.5q10 0 18 -1.5t16.5 -4.5l11.5 -4q0 -2 2 -18t2 -22q7 0 7 -43l8 -38h18q11 -5 37.5 -8.5t38.5 -10.5q2 -4 14 -16 q45 -57 102 -57q22 0 36.5 6.5t20 15t16 15t24.5 6.5q10 0 14 -2t10 -12q3 -4 14.5 -28t13.5 -27v-14q-1 -2 -5 -17t-4 -17v-83q-10 -15 -17.5 -40t-10.5 -31q0 -2 -5.5 -13.5t-6.5 -12.5q-1 -4 -5 -13.5l-5 -12t-4.5 -9t-6.5 -8t-8.5 -4.5t-12.5 -3.5t-17 -0.5 q-32 0 -51.5 19.5t-25.5 44t-15.5 56t-21.5 47.5q-20 24 -50 57q-58 62 -83 62h-23l-1 -9l12 -104l-7 -38q10 -34 10 -39q0 -18 -10 -33q11 -12 18.5 -69.5t7.5 -86.5l-14 -83q54 -31 90 -31l61.5 -40t81.5 -55t58 -45q8 -3 15 -14l19 -40q7 -10 22.5 -30t25 -35.5 t14.5 -32.5q2 -2 5 -25t4 -24q0 -1 1.5 -6t3.5 -13t2 -16q0 -12 -7 -29t-9 -28l1 -20q1 -20 1 -33q0 -19 -2 -23q0 -2 -9 -17t-10 -17q-2 -3 -24 -48t-26 -49q-1 -4 -53 -56q-72 -65 -140 -83q-40 -9 -116 -24q0 -3 4.5 -24.5t5.5 -35.5q-1 -4 -3.5 -6.5t-4 -5.5t-1.5 -7 q0 -11 -1 -18t-5.5 -16.5t-16 -14.5t-29.5 -5q-16 0 -24 5t-15 23z" />
<glyph unicode="%" horiz-adv-x="1559" d="M487 26l1 3q-5 -8 -19 -22t-26 -24l-12 -10h-13q-20 2 -28.5 3.5t-20.5 10t-18 24.5q-9 18 -9 26q0 5 0.5 9.5t1 7.5t3 7.5l4 7l6.5 10.5l8 13l-2 -3q1 2 4.5 7t4.5 7l60 77q7 8 25.5 26t29.5 32t19 30l205 261q115 153 146 188l-2 -2q13 20 41.5 57.5t37.5 50.5l23 25 q2 2 7 10t6 10v-1q10 18 26 39.5t26.5 34l34.5 40l31 35.5l88 101q8 3 15.5 6.5t17.5 6.5q21 -2 34.5 -17.5t13.5 -35.5q-2 -9 -2 -23q-1 -9 -4.5 -19t-10.5 -22t-11.5 -18l-14.5 -20t-12 -16q-9 -4 -24.5 -22t-27.5 -44q-50 -73 -113 -148t-103 -133l3 10q-15 -23 -18 -26 l1 1q-11 -14 -24.5 -29t-21.5 -25.5l-15 -20.5q-14 -22 -30 -41l-36 -41q-7 -14 -33 -46l-47 -59.5t-21 -35.5q-14 -16 -21.5 -26.5l-18.5 -27t-27 -37.5q-8 -11 -21 -21q-2 -4 -8 -17t-9 -17q-14 -13 -32 -39v1q-10 -15 -15.5 -22l-19 -23.5t-33.5 -43.5zM1136 404z M1148 102l-14 6q0 1 3 1l3 -1zM1004 249q0 -22 38 -68q25 -25 93 -71q6 0 8 1l7 2q3 0 9.5 -0.5t9.5 -0.5h16q33 0 61 36q8 0 8 3q36 20 54 65q5 -1 7.5 6t3.5 16t3 11q-18 83 -56 113q-9 6 -16 19l-6.5 9.5t-4.5 4.5t-5 3l-6 4q-5 2 -7 3h-46q-3 0 -10 1.5t-8 1.5 q-8 0 -23 -5l-15.5 -11.5t-12 -8.5t-9.5 -4t-14 -2q0 -1 -2.5 -3l-6.5 -5l-7.5 -5.5t-6 -4.5t-1.5 -2h-35q3 -3 -4 -10l-2 -3q-6 -6 -7 -6q0 -1 1.5 -6.5t1.5 -7.5v-9q0 -32 -4 -53zM896 299q1 -15 6 -63.5t5 -55.5q6 -25 28 -60t50 -57l15 -6l17 -16q47 -47 91 -47h8 q1 0 5 0.5t6 0.5h6l25 -9h17l8 2q5 2 29.5 4.5t37.5 7.5q69 9 124 67.5t62 123.5v49q10 18 10 25v16q0 73 -43.5 132.5t-113.5 87.5q-3 1 -17 10.5t-25 10.5h-29q-43 9 -68 9h-10q-4 -1 -24 -5.5t-23 -5.5q-9 -5 -38 -13t-37 -20q-15 -9 -28 -19.5t-29 -25l-23 -20.5 l-10 -11l-2 -12q-2 0 -8.5 -10.5t-14 -35.5t-7.5 -54zM339 985zM337 689l14 -6q-4 4 -8 6l-3 1q-3 0 -3 -1zM207 830q5 9 6 13q4 21 4 53v9q0 2 -1.5 7.5t-1.5 6.5q1 0 7 6l2 3q7 7 4 10h35q-1 0 1.5 2t6 4.5l7.5 5.5l6.5 5t2.5 3q8 0 14 2t9.5 4t12 8.5l15.5 11.5 q15 5 23 5q1 0 8 -1.5t10 -1.5h46q2 -1 7 -3q2 -2 6.5 -4.5t7.5 -5.5t8 -11q7 -13 16 -19q38 -30 56 -113q-2 -2 -3 -11t-3.5 -16t-7.5 -6q-18 -45 -54 -65q0 -3 -8 -3q-29 -36 -61 -36h-16q-3 0 -9.5 0.5t-9.5 0.5l-7 -2q-2 -1 -8 -1q-68 46 -93 71q-38 46 -38 68zM99 880 q1 -15 6 -63.5t5 -55.5q6 -25 28 -60t50 -57l15 -6l17 -16q47 -47 91 -47h8q1 0 5 0.5t6 0.5h6l25 -9h17l8 2q5 2 29.5 4.5t37.5 7.5q69 9 124 67.5t62 123.5v49q10 18 10 25v16q0 73 -43.5 132.5t-113.5 87.5q-3 1 -17 10.5t-25 10.5h-29q-43 9 -68 9h-10q-3 -1 -23 -5.5 t-24 -5.5q-9 -5 -38 -13t-37 -20q-15 -9 -28 -19.5t-29 -25l-23 -20.5l-10 -11l-2 -12q-2 0 -8.5 -10.5t-14 -35.5t-7.5 -54z" />
<glyph unicode="&#x26;" horiz-adv-x="1576" d="M503 1209q0 -38 21 -109q1 -3 3 -8t3 -8l2 -4q3 -4 17 -18t18 -17l14.5 -18.5t16.5 -20t17.5 -12.5t24.5 -6q10 0 17.5 4t10.5 7.5t8.5 14t8.5 15.5q8 13 23.5 35t19.5 29.5t11 24t8.5 33t1.5 41.5q0 64 -39 110.5t-102 46.5q-20 0 -34 -7q-46 -26 -58.5 -51.5 t-12.5 -81.5zM288 436v-10q0 -1 3.5 -10.5t3.5 -10.5v-19v-50q4 -34 16 -42q9 -9 35 -22q14 -10 35.5 -37.5t33.5 -37.5q8 -8 33.5 -14.5t28.5 -7.5q1 0 10.5 -3.5t10.5 -3.5h76q4 0 29 -2.5t28 -2.5h29q22 0 43.5 8t48.5 24t38 21q3 2 14.5 8.5t15.5 9t13.5 9t13.5 11 l10 11.5t9 13.5t5 15.5t2 19q0 44 -34.5 98t-76.5 98q-34 29 -57 55q-1 3 -10 21.5t-10 19.5q-42 82 -83 113q-2 1 -17.5 6t-17.5 6q-10 8 -22 22.5t-23.5 21t-32.5 6.5q-32 0 -49 -7.5t-22 -16.5t-13.5 -32t-19.5 -41l-3 -3q-2 -3 -5 -6.5t-4 -5.5q-1 -1 -14 -10l-13 -9 q-15 -15 -20 -32t-6 -42t-4 -39l-6 -12q-6 -13 -6 -15q-13 -44 -16 -61v-12zM88 336v20q0 1 3.5 13.5t3.5 14.5q1 25 2 77.5t3 83.5q2 0 8 19q2 6 9.5 25l11.5 29t11.5 25t15.5 26.5t17 20.5q8 12 39 42.5t42 40.5q6 6 57 35q28 24 47 26q1 2 8 2q4 0 8.5 -0.5t7.5 -1.5h3 q24 4 40.5 19.5t16.5 37.5q0 17 -8.5 30.5t-25 29t-23.5 25.5l-3 9q-2 9 -2 10q-1 3 -4.5 9.5t-6.5 11.5l-3 6q0 3 -5 9.5t-10 12t-5 6.5q-35 70 -35 137q0 26 13.5 68t14.5 67q4 5 26.5 31t26.5 31q1 1 8 10.5t8 10.5q0 7 7 7q54 22 109 34q18 7 38 7q7 2 19.5 8t23 9.5 t21.5 3.5h10q8 0 34.5 -2.5t29.5 -2.5l12 -7q2 -1 7 -3t9.5 -3.5t6.5 -2.5q17 0 34 -7q3 -1 35 -19l12 -13q12 -13 16 -14q3 -3 12 -10.5l12.5 -10.5t10.5 -10t11 -12t8.5 -12.5t7.5 -14.5q3 -9 11 -28t12 -30.5t8 -28t4 -30.5q0 -81 -70 -203q-6 -12 -27.5 -27t-27.5 -23 q-2 -1 -11 -13.5t-12 -14.5q-1 -2 -19 -13t-22 -12q-4 -6 -21 -23v-7q0 -21 10 -44.5t18.5 -35.5l27.5 -38q6 -7 28 -35l40.5 -52t22.5 -30q9 -13 49.5 -38.5t54.5 -25.5q19 0 28 8q15 14 28 34t27.5 50.5t20.5 40.5q1 1 7 9.5t8 9.5q14 55 13 57l-7 12q-41 0 -97 35 q0 2 -1 8l-1 7q0 24 36 58q37 0 57 5q1 0 16.5 7t18.5 7h9q9 0 23 -3.5t23 -3.5h14q27 5 40 13h168q1 0 10 -5l21 -11.5t17 -8.5q7 -7 7 -16v-7q-10 -23 -28.5 -42.5t-40.5 -26.5q-1 -1 -20.5 -7.5t-21.5 -8.5q-4 -1 -19.5 -12l-34 -24.5t-23.5 -16.5q-36 -36 -40 -44 q-3 -1 -18 -12.5t-17 -13.5q-12 -10 -32 -35.5t-32 -35.5q-22 -37 -62 -122q-12 -42 -12 -64q-3 -3 -9.5 -17.5t-6.5 -17.5t6.5 -20t9.5 -23q6 -12 32 -24.5t30 -15.5q13 -19 19 -22q10 -8 34 -16t28 -10q9 -2 51 -2q6 0 16.5 -1t14.5 -1q20 0 38 10q17 9 44 28.5t50.5 30.5 t52.5 11h14l6.5 -6.5l12 -12.5t8.5 -9q7 -10 7 -48v-18q0 -94 -89 -160t-188 -66q-79 0 -134 27q-4 6 -7 7q-50 76 -63 90q-2 4 -27.5 29t-27.5 28q-5 4 -9.5 12t-10 12t-15.5 4q-13 0 -13 -2q-3 -1 -11.5 -15.5t-9.5 -18.5q-73 -104 -152 -146q-33 -8 -44 -15 q-3 -1 -17.5 -12.5t-23.5 -13.5q-2 -1 -37 -4t-38 -5q-3 0 -22 -6t-21 -6h-41q-75 0 -127 21q-2 2 -26 13t-29 13q-1 2 -19 8t-23 7q-31 16 -96 76q-22 21 -56 71t-41 76q-7 25 -7 77z" />
<glyph unicode="'" horiz-adv-x="524" d="M95 882q0 24 6.5 38.5t15 20t24 14t25.5 17.5q57 57 61 64q43 51 43 97q0 47 -21 54q-2 1 -13 2.5t-22 3.5t-13 2q-18 3 -33.5 13t-20.5 15t-24 26q-5 6 -22.5 24t-24.5 33v35q0 48 16 72.5t60 43.5q59 23 69 29h18q30 0 92.5 -29.5t75.5 -53.5q10 -30 15 -35 q2 -7 12 -28.5t16.5 -39t6.5 -28.5q0 -9 -4.5 -25.5t-4.5 -25.5t4.5 -27t4.5 -28q0 -43 -7 -67q-7 -7 -9 -7l-10.5 -21.5t-11.5 -24.5t-11 -22t-13.5 -24t-13.5 -20t-16 -20q-3 -4 -14.5 -14.5t-18.5 -20.5t-7 -22l-41 -12q-2 0 -21 -3.5t-21 -3.5q-1 -1 -8 -4t-13 -6.5 t-6 -5.5q-5 0 -29 -6t-29 -6h-22h-24q-16 4 -16 26z" />
<glyph unicode="(" horiz-adv-x="668" d="M668 1384v-5q-5 -11 -7 -12q-1 -4 -10 -18.5t-11 -16.5q-1 -2 -7 -18t-7 -17l-2 -3q-2 -2 -4 -4.5t-4.5 -4.5t-4.5 -3q-18 -14 -54 -54q-2 -3 -20.5 -21l-22.5 -22t-21.5 -24.5t-20.5 -23.5q0 -1 -3 -7.5t-5.5 -13t-3.5 -7.5l-6 -5q-5 -5 -10 -9.5t-6 -6.5 q-5 -5 -7 -13.5t-3 -19.5t-2 -15t-14 -28.5t-14 -27.5q-7 -5 -7 -20q-3 -8 -14.5 -23.5t-13.5 -25.5q-7 -12 -7 -41q-7 -14 -8 -14q-26 -62 -26 -118q0 -20 6 -59t6 -60v-7q-3 -12 -12.5 -40t-16 -51.5t-6.5 -38.5v-15q0 -4 7 -44.5t7 -45.5q-8 -40 -14 -54q0 -2 -2.5 -12 t-2.5 -11v-1v-5q5 -35 5 -56q2 -2 23 -34q1 -5 6 -46t6 -46q8 -14 29 -69q0 -17 6 -26q18 -24 22 -28q13 -23 28.5 -81t33.5 -85q1 -4 24.5 -29.5t24.5 -27.5q5 -7 40 -60.5t41 -64.5q3 -1 11.5 -12.5t11.5 -13.5q5 -5 5 -8q3 -1 18 -9.5t16 -9.5q16 -12 36.5 -53.5 t20.5 -62.5q0 -11 -5.5 -21t-16.5 -10q-61 0 -83 20h-5q-15 4 -54.5 32.5t-42.5 30.5q-1 0 -8 3.5t-8 3.5q-1 4 -9 21.5t-10 19.5q-9 14 -39.5 31.5t-38.5 30.5q0 5 -5.5 19.5t-7.5 15.5q0 1 -6.5 11t-6.5 12v5v14q-2 4 -10 10t-15.5 11t-8.5 6q-14 10 -24 24t-14 23.5 t-10 29t-9 27.5q0 1 -2.5 8t-2.5 8q-2 1 -8.5 10l-13.5 19t-8 12q-11 17 -19.5 47t-14.5 43q-5 11 -14 26.5t-14.5 28.5t-6.5 28v40q0 3 -14 38l-7 19v62q-2 38 -18 112.5t-16 121.5v2q10 61 15 69l-1 24q-1 23 -1 36q0 21 2 25l3 16q2 16 2 18q0 4 3.5 34t3.5 35 q16 10 24 38.5t11.5 65.5t6.5 49q32 87 34 103q1 3 14 27.5t14 28.5q1 1 4 13t3 14q6 13 9 14q0 3 8 14t11 14q7 14 7 22l20 40l65 74.5t69 77.5q0 3 12 21q62 99 128 99q24 0 59.5 -18.5t35.5 -40.5z" />
<glyph unicode=")" horiz-adv-x="696" d="M28 -498v5q4 10 7 12q1 4 10 18.5t11 16.5q0 1 3 10.5t6 16.5t5 7q6 12 14 16q19 13 55 53q3 4 21 22.5t22 21.5q6 5 21.5 24t18.5 24q2 1 7.5 14t6.5 14q20 20 21 22q7 6 9.5 24.5t4.5 22.5q1 4 14 29t13 28q7 7 7 19q3 6 14.5 22.5t13.5 27.5q1 3 4 20t3 20q7 14 8 14 q26 62 26 119q0 19 -6.5 58.5t-6.5 59.5v7q1 4 17.5 57t16.5 73v15q0 4 -6 44.5t-6 45.5q9 40 12 56q0 1 3.5 10t3.5 10v2v5l-7 56q-3 6 -21 34q-8 75 -13 92q-1 3 -14 33.5t-14 35.5q0 3 -2.5 14t-4.5 12q-14 21 -21 28q-12 23 -28.5 81.5t-33.5 84.5q-2 4 -24 29t-24 28 q-7 8 -42.5 61.5t-39.5 62.5q-2 2 -10.5 13t-11.5 13q-1 2 -4 5t-3 4q-1 1 -17 10t-18 11q-15 11 -35 52t-20 62q0 11 5.5 22t15.5 11q12 0 12 -12v-14q3 0 31.5 1.5t39.5 1.5h7q15 -2 53.5 -31t42.5 -31q1 0 7.5 -3.5t8.5 -3.5q1 -1 9.5 -20t9.5 -21q8 -14 39 -31.5 t39 -31.5q0 -2 5.5 -17.5t6.5 -16.5q0 -1 7 -10.5t7 -10.5v-7v-14q2 -6 18 -17l16 -10q9 -7 16.5 -15.5t12 -14.5t9.5 -18t6.5 -16.5t6 -20.5t5.5 -19q0 -1 3.5 -7.5t3.5 -8.5q0 -1 13 -19.5t14 -20.5q12 -19 21.5 -50.5t13.5 -40.5t14 -25t15 -28.5t6 -28.5v-41 q0 -3 6.5 -18t8.5 -18l7 -21v-63q2 -39 18.5 -112.5t16.5 -120.5v-2q-1 -3 -8 -34t-8 -35v-61v-24q0 -1 -3.5 -16t-3.5 -18q0 -4 -2.5 -34t-2.5 -36q-17 -9 -24.5 -37t-11 -65t-6.5 -48q-3 -10 -11.5 -35.5l-15 -46t-7.5 -22.5q-1 -3 -14 -28t-14 -29q-2 -1 -4.5 -13 t-2.5 -15q-6 -6 -8 -13q0 -2 -4.5 -8.5t-9.5 -12.5t-5 -7q-7 -3 -7 -21q-3 -4 -12 -21t-11 -20l-131 -153l-3 -4l-6 -10t-3 -6q-66 -97 -128 -97q-24 0 -60 18t-36 39z" />
<glyph unicode="*" horiz-adv-x="792" d="M412 1299q9 16 19 55t26.5 58t52.5 19h26q23 -17 23 -54q0 -40 -8.5 -78t-35 -71.5t-67.5 -33.5q-8 0 -22 6.5t-14 13.5v85zM126 1317v24q13 21 35 21q7 0 25.5 -3.5t22.5 -5.5q3 0 30 -19q71 -71 81 -85q23 -36 23 -64q0 -17 -35 -17q-13 0 -26 3.5t-22 7t-24 13 t-19.5 13l-22 17.5t-19.5 15q-3 2 -11 8t-10 8t-7.5 6.5t-7 7t-5 7t-4 8t-2 9.5t-2 12t-0.5 14zM521 1076v7q6 11 29 43q4 4 15 11.5t13 7.5h69q9 -9 31 -14t31 -13q5 -2 15.5 -12.5t12.5 -15.5q0 -1 -2.5 -9.5t-2.5 -9.5q-3 -3 -10 -13.5l-12.5 -19t-7.5 -9.5 q-14 -15 -44 -15h-20h-32q-4 0 -42 22l-12 6t-12.5 7l-8.5 6.5t-8 9.5t-2 11zM85 986v9q7 25 7 34q4 9 25.5 17.5t53 16t33.5 8.5q1 0 12.5 6t13.5 6h4q5 0 36 -10.5t31 -18.5v-6q-1 0 -6.5 -5.5t-8.5 -6.5q-6 -5 -34 -31t-43 -38t-40.5 -25t-47.5 -13t-29 14.5t-7 42.5z M405 1021q16 -3 29.5 -11.5t21.5 -16.5t16.5 -26.5t11.5 -26t10 -31.5t8 -27v-7q0 -97 -61 -97q-30 0 -52 42q-5 7 -12 23.5t-7 19.5v109q0 26 35 49z" />
<glyph unicode="+" horiz-adv-x="1163" d="M124 699q24 22 83 22q30 0 39 -5h151q75 0 92 16q17 17 17 71l-19 235q0 61 19 81q16 14 50 14q54 0 76 -24l28 -61q5 -2 12 -72q-8 -3 -16 -11q-15 -21 -15 -45q0 -52 12 -98q1 -7 1.5 -13t1 -8.5t0.5 -4.5q0 -11 -1.5 -32t-1.5 -27l2 -3q6 -7 8 -7q23 0 71.5 8.5 t68.5 8.5q23 0 51 -10h154q8 0 22 -7q9 -11 9 -30v-76l-18 -19q-33 -33 -90 -33q-31 0 -91.5 11t-82.5 12l-23 -9l-62 -5q-9 -17 -16 -65.5t-7 -93.5q0 -37 9 -75q5 -15 5 -29q0 -3 -2.5 -17.5t-2.5 -15.5l4 -48q0 -21 -9 -30q-14 -10 -45 -10q-53 0 -80 17 q-19 36 -26 124.5t-13 116.5l20 77q0 13 -7 21q-21 19 -45 19q-10 0 -33 -4t-37 -4q-25 0 -30 1q-4 7 -24 7l-24 -2q-25 -6 -66 -6q-38 0 -66 6q-33 0 -48 21q-12 21 -12 61q1 18 3 30t3 16z" />
<glyph unicode="," horiz-adv-x="552" d="M112 -337q0 30 8 44t30.5 25.5t32.5 20.5q57 57 60 64q43 49 43 96t-20 54q-3 1 -24.5 4.5t-24.5 4.5q-18 3 -33 12.5t-21 15.5l-24 25q-6 8 -22.5 25.5t-23.5 31.5v35q0 48 16 72.5t60 43.5q66 27 69 29h17q30 0 93 -29.5t75 -53.5q1 -1 8 -17t8 -17q3 -8 12 -28.5 t15.5 -38.5t6.5 -30q0 -8 -4 -25t-4 -25q0 -10 4 -28t4 -28q0 -43 -7 -67q-4 -7 -8 -7q-49 -101 -77 -132q-3 -4 -14.5 -14.5t-18 -20.5t-6.5 -22l-42 -12q-2 0 -20 -3.5t-21 -3.5q-3 -1 -15 -7t-13 -8q-3 -1 -16.5 -4l-25 -5.5t-15.5 -2.5h-23h-24q-15 3 -15 26z" />
<glyph unicode="-" horiz-adv-x="831" d="M159 452q0 55 97 60h83q9 1 87 4.5t87 4.5h42h40q18 -8 34.5 -23.5t24.5 -26.5l25 -35l7 -12q0 -35 -27 -78q-8 -11 -29.5 -24t-27.5 -18q-8 0 -52.5 -3t-51.5 -3h-11h-8q-5 0 -53 3t-53 3h-60q-6 0 -36 3.5t-37 3.5q-28 4 -44.5 14.5t-23.5 27.5t-9.5 35.5t-3.5 44.5v10 v9z" />
<glyph unicode="." horiz-adv-x="485" d="M104 81q-7 31 -7 83v30q0 3 11 22l10 19q0 9 7 23q12 28 41.5 45t62.5 17q15 0 24 -4t19 -12t19 -12q2 -2 21 -8q13 -4 19 -10.5t12.5 -19t11.5 -19.5q3 -5 14 -15t18 -20t8 -20v-38q0 -15 -1 -23.5t-1.5 -14.5t-4.5 -11.5t-6.5 -8t-11.5 -10l-15 -12.5q-5 -3 -43 -41 l-26 -21h-78q-18 12 -21 12q-2 2 -14.5 8.5t-12.5 7.5q-5 4 -29 27z" />
<glyph unicode="/" horiz-adv-x="557" d="M30 -112q0 19 5.5 35.5t14.5 35t13 32.5l8 31q1 11 8.5 27.5t9.5 23.5l8 50q0 3 13 15l13 11v46q1 17 18.5 41.5t21.5 35.5q26 68 26 72q0 15 20.5 79t36.5 70q25 44 54 171l40 95q28 130 41 139l14 38q2 19 7.5 33t15 30t15.5 30q13 29 23 60t22.5 76.5l16.5 59.5 q3 13 8 24t14.5 28t12.5 24q25 70 34 118q3 21 6 31t11 22.5t22.5 17.5t37.5 5q39 0 58 -21v-55l-3 -7q-4 -6 -7 -11.5t-3 -6.5q-3 -12 -3.5 -39t-5.5 -42q-2 -10 -6.5 -16t-14 -13.5t-12.5 -10.5q-5 -8 -5 -38q-7 -35 -61 -107q-14 -21 -14 -33l-1 -31q-11 -58 -40 -95 q0 -7 1 -16t1 -12q0 -16 -2.5 -27t-4.5 -15t-8.5 -11.5t-7.5 -8.5q-6 -10 -13.5 -36t-7.5 -39q0 -31 -9 -54t-19 -36.5t-11 -16.5q0 -3 -4.5 -11.5t-4.5 -9.5q-2 -19 -8 -36t-12 -27t-19.5 -29.5t-19.5 -29.5q-10 -16 -10 -44q0 -53 -5 -62q-5 -7 -9.5 -15t-7.5 -14.5 t-5 -12.5t-3 -10l-1 -3q-1 -4 -15 -17.5t-18 -15.5q-7 -10 -12.5 -63.5t-13.5 -64.5q-1 -4 -12 -15t-11 -13q7 -14 7 -28q0 -38 -31 -57l-2.5 -19.5t-2 -16t-3 -9t-7.5 -7.5q0 -1 0.5 -12t0.5 -20q0 -32 -6.5 -48t-27.5 -34q-14 -14 -14 -34v-12q0 -9 -2 -13 q-5 -16 -14 -25.5t-12 -27.5l-57 -21q-10 0 -30 30.5t-20 37.5z" />
<glyph unicode="0" horiz-adv-x="1102" d="M229 417q0 -54 71 -138q1 -1 7.5 -10t13 -16.5t9.5 -8.5q2 -3 29 -18t33 -18q14 -9 40 -30.5t41 -30.5q2 -1 5.5 -3t6.5 -4t4 -2t13 4.5t13 4.5q11 0 32 -1t30 -1q33 0 57 14q46 33 62 49q26 13 28 15q35 21 54.5 43.5t35.5 60.5q1 1 2.5 4t3 5.5t3.5 2.5q0 1 6 8t6 8 l7 27q0 3 3.5 18t3.5 17v2v5q-12 47 -20 75t-30 69.5t-49 62.5q0 1 -5 4t-7 3q-5 6 -20 30.5t-28 32.5q-38 19 -44 20h-88q-4 0 -14 3.5t-14 3.5q-17 0 -50 -12q-1 -2 -12.5 -4.5t-15.5 -2.5q-1 -4 -8 -14.5t-11 -12.5q-9 -7 -34 -7q-20 -6 -23 -9q-1 -2 -13 -14.5 t-14 -13.5h-40h-14q-8 0 -12.5 -3t-10.5 -13l-6 -10q-1 -1 -8.5 -8t-13.5 -14.5t-6 -11.5q0 -3 3.5 -15.5t3.5 -14.5v-17q0 -45 -7 -86q0 -1 -4 -7l-3 -7q-2 -12 -2 -14zM106 503v2l13 107q4 8 14.5 21.5l14.5 18.5q5 10 5 14q2 1 5 10.5t4 10.5l7 7l29.5 26.5l32 28.5 t30 24t34.5 25q8 4 26 22q21 14 97 35q8 1 44 10t41 10h12q18 0 38 -2.5t43.5 -6.5t37.5 -6h47q14 -1 36 -16.5t28 -18.5q116 -46 183.5 -138t67.5 -213v-29q0 -3 -7 -17.5t-9 -17.5v-66v-24q-8 -73 -48 -138q-128 -150 -251 -166q-5 -2 -45 -5t-43 -4q-2 0 -18 -7t-17 -7 h-16h-12q-2 0 -10.5 3.5t-15.5 7.5l-8 3q-7 2 -21 2q-6 0 -17 -1t-16 -1q-20 0 -38 9q-6 0 -35 19q-6 5 -32.5 22.5t-29.5 20.5l-34 34q-16 0 -21 7q-48 36 -99 125l-8.5 14.5l-8 14t-5.5 13t-4 18.5q0 3 -4.5 42.5l-9.5 86t-7 67.5v3z" />
<glyph unicode="1" horiz-adv-x="752" d="M401 9q-14 0 -43 -4.5t-42 -4.5q-33 0 -91.5 9.5t-81.5 11.5q-9 10 -9 22l2 7q4 8 41 35q1 0 6.5 2.5t7.5 2.5q3 1 17.5 6.5t20 8t17 9t17 12t11 14.5t7.5 19q7 38 7 95q0 16 -3.5 45t-3.5 45v18q0 2 7 20t7 19q1 11 -6.5 30.5t-7.5 28.5q0 27 8 78t8 78q0 8 -1 32l-1 25 q0 14 -2.5 40.5t-4.5 28.5l-7 5q-6 3 -45.5 12t-44.5 11q-2 1 -15.5 4.5t-21 6.5t-18.5 8t-16 11.5t-5 14.5q0 19 14 40t33 26q20 6 90 6q43 0 129.5 -3t107.5 -3q3 0 44 2.5t47 2.5h6q23 0 40 -18t17 -39q0 -15 -17 -28.5t-33 -18.5q-1 0 -20.5 1t-30.5 1q-17 0 -19 -2 q-18 -4 -40 -21t-22 -36v-5q7 -11 7 -12q1 -2 2.5 -13t3 -24.5t3.5 -20.5v-1q0 -9 -4.5 -28t-4.5 -29q0 -14 4.5 -40t4.5 -40v-19q-8 -19 -23 -85v-46q0 -10 -3.5 -49t-3.5 -43q0 -1 -2.5 -9.5t-2.5 -9.5q-3 -2 -3 -16q0 -12 3 -12q0 -8 12 -92q14 -24 33.5 -34t51.5 -16.5 t47 -11.5q2 0 10 -7t10 -7q5 -1 20 -1t22 -4t7 -17q0 -8 -6.5 -16.5t-12.5 -12.5t-17 -10.5t-13 -7.5h-43q-41 0 -121 14q-2 1 -14.5 4.5t-14.5 4.5h-12z" />
<glyph unicode="2" horiz-adv-x="1006" d="M99 35q0 57 103 77q44 0 56 7q5 2 22 13.5t19 14.5l14 7q54 17 83.5 34.5t63.5 55.5q5 10 5 14l27 27t30 32t20.5 31.5t14.5 40.5v28q1 8 11 23.5t10 24.5l-2 6q0 2 -3.5 11.5t-3.5 10.5q0 33 -5 50q-2 2 -11.5 16.5t-10.5 18.5q0 1 -3 7.5t-6 15l-4 11.5q-20 53 -69 82 l-41 22h-106q-4 -2 -21 -7.5t-28 -10.5t-20 -11q-5 -5 -7 -5q-3 -3 -8 -10.5l-7.5 -11t-7.5 -9.5t-8.5 -9.5t-8.5 -7.5t-10 -7t-12 -5.5t-14 -3.5q-11 -3 -27 7.5t-23 21.5v29q0 38 22 68t51 59t39 57q3 0 7 -1t7 -1q39 0 85 24q28 5 69 5q39 0 69 -5q4 0 28 -7q0 -2 12 -8 q61 -17 69 -19q2 -1 16 -13t19 -15l29 -29q8 -9 31 -33t29 -33t18 -28.5t15.5 -39t3.5 -45.5q0 -49 -10 -86t-21.5 -57.5t-44.5 -72.5q-3 -5 -6 -13l-5 -13.5t-6 -12t-11 -9.5q-33 -13 -41 -21q-15 -23 -16 -23t-6.5 -2.5l-12 -5.5t-8.5 -4q-7 -5 -27 -35t-20 -34 q0 -24 40 -64q22 -1 77 -7.5t82 -6.5l8 2q1 0 8 3l6 4q65 7 87 7q21 0 31 -2q23 19 39.5 40.5t34.5 52t30 46.5l6 2q7 1 9 1l12 -3q9 -3 23 -28v-9q0 -25 -19 -67t-23 -56q-6 -17 -22 -117l-5 -5q-32 -16 -44 -16h-167q-14 9 -40 9h-14q-14 0 -37 -4.5t-36 -4.5 q-9 0 -24 4.5t-24 4.5q-17 0 -48 -4.5t-47 -4.5q-13 0 -39.5 3.5t-40.5 3.5q-60 0 -86 -14h-132q-15 0 -28 13.5t-13 28.5z" />
<glyph unicode="3" horiz-adv-x="764" d="M129 -351q-1 3 -1 5l1 2q35 60 84 62h89q46 26 77 35q12 7 41 7q1 0 7.5 3t8.5 3q0 1 2.5 4.5t2.5 4.5q2 0 14 5t15 7q5 10 5 30q3 2 8.5 16t5.5 18q2 0 2 28q0 18 -3 34.5t-9.5 34t-11.5 28.5t-15.5 31.5l-15.5 30.5q-7 0 -7 21q-17 22 -36 29t-49.5 7.5t-46.5 3.5 q-2 2 -9 5l-6 3q-13 5 -60.5 5.5t-80 11.5t-32.5 42q0 20 22.5 36t46.5 23q2 1 15.5 4t25.5 6.5t14 4.5q8 0 42 19q1 1 10.5 7.5t11.5 8.5q11 0 26 5q5 3 33.5 25.5t29.5 23.5q2 1 8 4.5t9 6l7.5 6.5t6.5 8t3 9v11v24q3 16 28 41.5t27 43.5l-3 9q-2 9 -2 10v15q0 28 12 47 q-1 6 -10 33.5t-9 28.5q-8 39 -15 50q-4 10 -28 35q-3 3 -13.5 8.5t-12.5 5.5q-28 12 -62 12q-31 0 -69 -12q-4 -4 -16 -14.5l-25.5 -21.5t-15.5 -13q-10 -6 -31 -13t-32 -7q-9 0 -15 4.5t-9.5 14.5t-5 16t-3 19.5t-1.5 14.5v3v2q0 2 6 14.5t6 14.5q25 53 64 70 q91 39 104 39q2 2 15 3.5t31.5 3t22.5 2.5h48h49q19 -12 49.5 -37t40.5 -32q34 -25 50.5 -38.5t34.5 -41.5t18 -58v-28q0 -7 -2.5 -30t-6 -50.5t-3.5 -32.5q-9 -61 -84 -138q-54 -57 -111 -111q-5 -2 -5 -14q3 -15 5 -20q11 -26 30.5 -45t51.5 -41t44 -32q23 -19 69 -104 q2 -5 6.5 -15t8.5 -18l4 -8q1 -5 4.5 -43t4.5 -42l4 -16q3 -16 3 -19v-10q0 -19 -7 -40t-13 -32.5t-22.5 -36.5t-19.5 -31q-3 -3 -8.5 -15t-5.5 -15q-9 -15 -23.5 -27t-26 -18t-33 -15t-30.5 -14q-2 -6 -12 -16q-5 -1 -35 -12.5t-34 -14.5q-6 -2 -10 -4l-5 -2.5t-3.5 -0.5 h-10.5q-7 0 -17.5 4t-17.5 4l-5 -1q-3 0 -18.5 -7t-16.5 -7q-3 0 -15.5 3.5t-13.5 3.5q-59 15 -83 34l-16 15.5l-25.5 25t-14.5 15.5z" />
<glyph unicode="4" horiz-adv-x="1179" d="M280 240q0 -13 4.5 -22t14 -14.5t17 -8t22.5 -6t20 -4.5q57 -19 62 -19q19 -2 26 -2q5 0 20 1t16 1h31q81 0 87 49q7 56 7 89q4 22 14 58v31v27q0 60 -14 80q-4 5 -21 5h-17h-18q-2 0 -14 -9.5t-13 -11.5q-25 -16 -44.5 -38.5t-42 -57t-33.5 -49.5q-20 -27 -69 -55 q-6 -4 -21.5 -9.5t-24.5 -13t-9 -21.5zM607 -474v16q0 2 1.5 23t3.5 41t3 24q0 1 -0.5 17.5t-0.5 27.5q0 15 1 17q0 3 6 15.5t6 13.5v30v33l-6 12v9v6q0 1 3 13.5t3 14.5v42v41l-20 28q0 2 -6.5 14t-7.5 14q-4 6 -12 6q-48 14 -139 14h-55q-38 0 -57 2q-7 0 -60 3.5t-59 3.5 h-11h-9q-71 -16 -91 -16h-7q-55 39 -55 80q0 21 20 45l55 63.5l49 55.5q2 1 7.5 10t6.5 9q1 4 12 15t16 15q3 3 41 38t43 40q3 1 10.5 9t8.5 10q3 1 9.5 9l12.5 16l6 9q11 9 43.5 42t41.5 43q23 8 31.5 18t13.5 22.5t17 21.5q78 60 133 111q6 5 26 25.5t35 34.5t35.5 30.5 t38.5 25.5t33 9q11 0 26 -13q-2 -7 -2 -43t2 -41q0 -5 7 -23q0 -2 1 -24.5t1 -27.5q0 -7 -1 -29t-1 -23q-1 -4 -14 -40t-14 -41q-1 -2 -1 -17q0 -7 0.5 -16.5t0.5 -16v-7.5q0 -6 -3.5 -38t-3.5 -36q-3 -21 -17 -77t-14 -88q0 -3 2 -20t2 -20q8 -19 41.5 -25t39.5 -9 q89 7 223 34q1 1 10.5 4.5t10.5 4.5q31 0 48 7q2 0 21.5 6t22.5 6q3 4 7 4q13 0 23.5 -16.5t10.5 -30.5t-7 -31l-12 -31.5l-19 -49.5t-12 -30q-51 -36 -83 -36q-5 0 -5 1q-12 0 -30.5 2.5t-19.5 4.5q-1 0 -13.5 6t-14.5 6h-14h-35q-2 0 -17.5 3.5t-16.5 3.5t-9.5 1t-11.5 1 q-63 0 -104 -28q-8 -35 -8 -98v-54q0 -6 0.5 -45.5t0.5 -46.5q7 -8 7 -24q0 -19 -7 -33q9 -51 9 -93q0 -45 -9 -87l-2 -4l-4 -10t-2 -6t-26 -35q-7 -7 -26 -7h-16h-20q-3 1 -15 6.5t-25.5 12.5l-17.5 9q-7 4 -11 9t-6 12.5t-2.5 12.5t-0.5 15.5v14.5v12z" />
<glyph unicode="5" horiz-adv-x="1018" d="M2 -261q0 14 24.5 31t39.5 17q8 0 24 -4t24 -4h7q2 1 23.5 14t23.5 15q11 6 85 43q27 0 62 5q12 4 20.5 16.5t16.5 30.5t11 23q3 7 27 42.5t29 40.5q0 1 3.5 7t3.5 8v40q0 2 3 15t3 14v58v60q0 2 -6 14q-1 1 -11 13.5t-12 14.5q-1 3 -6 34.5t-6 34.5l-7 27q-2 3 -18 18.5 l-17 16.5q-7 8 -33 43t-44 49q-12 9 -42 22.5t-42.5 30t-12.5 51.5q0 16 6.5 24.5t21.5 16t22 14.5l33 33.5t36 35.5q15 4 27 11t23.5 18.5t18 19.5t18.5 25.5l17 24.5q24 30 65 52t77 22h19q12 0 21 -5q1 -3 15 -14.5t19 -14.5q58 -39 62 -40q1 -2 13.5 -8.5t12.5 -7.5 q2 -1 11 -10t10 -9q4 -3 16 -9q17 -5 19 -6q3 -1 19 -7.5l32.5 -13.5t17.5 -7h9q16 0 43 18t47 18q30 0 36 -6.5t12 -29.5v-4v-3q-13 -47 -14 -48q-5 -10 -24 -14t-24 -7q-11 -10 -30 -33t-36 -34t-42 -11q-17 0 -45.5 7t-35.5 8q-2 1 -25.5 3.5t-29.5 2.5q-1 2 -10 8t-9 7 q-20 8 -42 19q-9 5 -36 24.5t-45 27t-42 7.5q-20 0 -36 -15.5t-16 -34.5q0 -45 28 -90l28 -28q5 -8 14.5 -32.5t13.5 -31.5q3 -8 23.5 -21t24.5 -19q7 -9 10.5 -30t5.5 -27q0 -1 9.5 -19.5t9.5 -21.5q27 -74 27 -184v-20q0 -37 -7 -52q-1 -3 -10.5 -21.5t-9.5 -20.5 q0 -3 -3 -19l-4 -15q-9 -39 -63 -106q-94 -128 -214 -180q-61 -27 -185 -27h-59q-69 25 -69 69z" />
<glyph unicode="6" horiz-adv-x="1066" d="M580 808l-63 14q-10 -7 -38 -7h-10q-3 0 -20.5 -6t-19.5 -6l-7 -7q-33 -55 -50.5 -89t-33.5 -85.5t-16 -100.5q0 -21 7.5 -60.5t7.5 -59.5q0 -6 -3.5 -20.5t-3.5 -24.5v-10q0 -7 7 -17q5 -6 23 -35t19 -35q6 -3 21 -41q8 -18 22 -35q5 -7 27.5 -16t26.5 -11 q4 -1 25 -17.5t25 -17.5q2 -1 26 -4t28 -3q3 0 18 -3.5t16 -3.5h16q29 0 46 14q3 0 16 21q4 7 20.5 33.5t22 37.5l16 33t14 41t3.5 40q0 11 -7 32.5t-7 31.5q0 11 3.5 29t3.5 33q0 51 -15 93.5t-47 102.5q-17 25 -23 27q-3 6 -9 19.5t-11.5 24.5t-13.5 19q-1 3 -16 17 t-19 17q-1 2 -9.5 15.5t-9.5 14.5l-4 3zM137 497q0 47 11.5 98t22.5 82t35 91q1 1 7 19.5t8 20.5q2 4 16.5 21.5t18.5 19.5q12 35 19 42q10 15 21.5 30t20 24l24.5 25.5t24 25.5q7 7 16 28t19 26q1 2 4.5 3.5t6.5 3t3 2.5l9 9l16.5 16.5l8.5 8.5q32 18 55 26q1 1 12 10 l20 16.5t10 8.5q1 2 11 5t11 4q16 6 39 27.5t36 27.5q17 10 104 35q21 20 63.5 42t78.5 35l16 3q15 3 18 3q2 1 22 5.5t25 7.5q1 1 10.5 7.5t11.5 8.5q19 5 71 5q16 0 24.5 -4t10.5 -8t5 -17t5 -19q1 -2 8 -11t8 -10v-14q0 -26 -35 -55q-3 -2 -9.5 -7.5t-12.5 -9.5l-5 -4 q-3 -1 -35 -3.5t-35 -3.5q-24 -10 -41 -21q-23 0 -37 -7l-13 -7q-2 0 -17 -9.5t-18 -10.5q-14 0 -35 -7q-42 -16 -103 -57q-16 -9 -55 -25t-58 -29q-4 -4 -12 -17.5t-14 -17.5q-6 -3 -23 -10.5t-27 -13t-19 -16t-9 -24.5q0 -6 11 -72q12 -5 17 -5q15 0 43 -3t31 -3h18l10 -3 q10 -3 11 -3q3 -1 24 -6.5t24 -6.5l21 -22q14 -11 44.5 -30.5t45.5 -31.5q38 -34 55 -56q0 -1 5 -11l10 -19.5t8 -10.5q2 -9 34 -35l2 -9q3 -9 3 -13q3 -6 8.5 -47t5.5 -48q0 -2 4 -7.5t5 -6.5q12 -49 12 -101q0 -50 -5 -67q-2 -1 -5.5 -4l-6.5 -5.5t-4 -2.5q-9 -33 -19 -57 q-5 -8 -16 -31.5l-21 -43t-13 -22.5q-41 -65 -118 -120q-33 -21 -84.5 -33.5t-96.5 -12.5q-44 0 -70 7q-1 1 -12.5 6.5t-14.5 6.5h-24h-11q-11 0 -53 14q-30 13 -58 35q-48 40 -74 69q-1 0 -50 62q-6 8 -9.5 14t-6 13l-4 11t-4 15t-4.5 17l-10.5 40.5t-10.5 42l-7.5 35.5 t-7 41t-3.5 38.5t-2 46.5z" />
<glyph unicode="7" horiz-adv-x="1079" d="M509 -356q0 15 13 34t16 28q6 9 6 41q1 3 7.5 20.5t7.5 19.5q1 6 16.5 35.5t18.5 33.5q0 5 3 23t4 21l14 27t13 28q1 1 6.5 27t7.5 28q45 137 75 243q2 3 4.5 14.5t3.5 12.5q0 29 14 92q0 2 6.5 13.5t9.5 14.5q3 9 9.5 36.5t13 45.5t16.5 35l21 35v118q0 25 -16 33t-43 8 h-17q-7 0 -63 3.5t-63 3.5h-2q-26 0 -77 -3.5t-77 -3.5h-52q-10 16 -31 16q-69 0 -112 -28q-9 -6 -23 -23l-7 -12q-5 -7 -27.5 -36.5t-27.5 -32.5q-4 -6 -12.5 -20.5t-14.5 -23t-17.5 -15.5t-24.5 -5q-37 5 -37 55q0 9 1 22.5t1 17.5v31q0 49 7 77l14 34q7 20 13 63t13 62 l29 53q3 4 19 13t24 10h12q14 0 30 -11t19 -12q27 0 34 -5q6 -2 78 -29h70q1 0 10 -2.5t10 -2.5h89q8 -7 24 -7q7 0 18.5 3.5t17.5 3.5h4q55 -16 150 -16q13 0 40.5 4.5t42.5 4.5h2q59 -12 89 -35.5t30 -77.5q0 -11 -10 -36.5t-12 -32.5q0 -28 -7 -42q-1 -2 -10.5 -23 t-10.5 -23q-5 -22 -7 -60.5t-9 -66t-25 -50.5q0 -6 -2.5 -29t-6 -48.5t-4.5 -31.5q-1 -2 -22 -76v-17q0 -33 14 -52q-2 -3 -17 -21t-18 -22q-8 -10 -11.5 -24.5t-5.5 -32t-4 -26.5q0 -3 -9.5 -34.5t-10.5 -35.5v-20q-9 -56 -28 -111q-6 -10 -14 -35l-4 -7q-3 -6 -3 -8 q-1 -1 -3.5 -16.5t-4.5 -18.5q0 -2 -9.5 -26.5t-9.5 -26.5l-16 -44v-4q1 -3 1.5 -7.5t0.5 -7.5q0 -7 -2 -7q-4 -51 -26 -85t-66 -34h-24l-7 7l-14.5 19.5l-17.5 24t-12 22.5t-6 26z" />
<glyph unicode="8" horiz-adv-x="1025" d="M291 979q0 -1 3.5 -13.5t3.5 -14.5q7 -56 7 -83q0 -1 8 -13q45 -83 130 -83q79 0 147 6q15 10 21 13q17 17 29 22q1 1 19 3t21 9l14.5 31l17.5 36.5l16 31.5q21 36 21 43v28q0 58 -19.5 101.5t-63.5 105.5q0 1 -6 4t-8 3q-19 8 -59 21.5t-45 13.5h-6q-5 1 -11.5 1.5 t-9.5 0.5q-5 0 -20 -1l-15 -1l-14 -7q-26 0 -43 -7q-17 -18 -28 -21q0 -1 -7.5 -5.5t-16.5 -9t-10 -5.5q-16 -32 -19 -44q-5 -8 -16 -40q0 -31 -7 -34q0 -2 -13 -14.5t-14 -15.5q-1 -2 -4 -26.5t-3 -35.5zM291 296q0 -30 10 -56.5t22 -42t37 -43.5l22 -23q3 -3 5 -13t8 -14 q64 -28 86 -28q97 0 140.5 33t80.5 126q19 54 19 114q0 62 -6 96q-4 12 -6 13q-35 48 -43 56q-38 47 -60 48h-30q-1 0 -8.5 2t-18.5 4t-21 3q-17 0 -37 -4.5t-47.5 -13t-33.5 -10.5q-4 -2 -7.5 -4t-5.5 -3t-4.5 -4.5t-3 -4.5t-3.5 -6t-4 -7l-7 -14q-1 -1 -13.5 -10 t-13.5 -11q-5 -3 -16 -14q-41 -76 -41 -169zM568 -28l-184 7q-4 0 -71 28q-5 1 -18.5 9.5t-15.5 11.5q-4 1 -16 14l-12 13q-2 1 -12.5 8l-20 13.5t-10.5 8.5q-6 4 -22.5 20t-19.5 20q-23 30 -48 110q-1 1 -4 7t-5 9q0 1 -2.5 5.5t-5.5 11t-4 11.5q7 10 7 13q9 28 14 35 q0 3 6.5 32.5t7.5 36.5q0 2 3 27t3 29q2 7 7 13t11.5 12t9.5 9q48 61 85 85q6 2 35 16.5t34 17.5q1 1 8.5 5.5l15.5 9t11 5.5l5 6v9q-1 1 -6 9.5t-6 9.5q-4 3 -37.5 24t-42 27l-35 25.5t-38 32.5t-27 33t-24.5 40q-7 19 -18 63t-17 63q0 1 -2.5 8l-5.5 16t-4 11v1q0 9 7 25 t16.5 33.5t11.5 21.5q6 30 6 43q17 57 66 102t87 64t114 50q9 4 14 6q4 0 19 -4l14 -3l10 3l10 4q56 8 83 8q65 0 111 -8q94 -16 194 -134q3 -1 14.5 -11.5t13.5 -13.5q5 -5 9 -12t6.5 -12t5 -13.5t4 -13t3.5 -14.5t2.5 -13.5l2 -14.5t1.5 -13q16 -77 16 -88q0 -21 -16 -63 q-15 -56 -48.5 -96t-89.5 -80q-90 -50 -90 -57v-5q47 -5 78 -54q0 -3 5 -14.5t7 -13.5q1 -1 11 -7.5t11 -7.5q21 -16 42 -56t27 -48q1 -1 10.5 -9.5t10.5 -9.5q0 -20 7 -38l7 -16q7 -16 7 -19v-39q0 -55 -13 -120t-35 -104l-21.5 -22.5l-24 -25l-23 -23t-25.5 -23.5 t-25.5 -20.5t-28 -20l-28 -15t-31.5 -13.5t-31 -7t-34 -3h-7q-1 0 -10 3.5t-12 3.5z" />
<glyph unicode="9" horiz-adv-x="1022" d="M277 500l5 -182q3 -28 28 -69.5t50 -68.5q0 -9 14 -23q1 -1 11 -12l21 -24t15 -17q21 -21 22 -23q25 -20 94 -20q16 0 29 4.5t25 16.5t18.5 19.5t19 26t15.5 23.5q30 36 50 64q11 29 12 34q29 91 29 194v41q0 4 -6.5 26t-6.5 25q-1 3 -4.5 31t-4.5 31q0 25 -7 28 q-1 1 -20 28t-27 41q-3 3 -13.5 8.5t-13.5 10.5q-33 43 -60.5 60t-78.5 25h-15q-16 0 -40.5 -14.5t-35.5 -27.5q-18 -22 -35 -48q-4 -5 -20 -23.5t-24.5 -32t-10.5 -27.5l-9.5 -41t-11.5 -46.5t-14 -37.5zM-85 -343q0 23 24.5 48.5t45.5 29.5q7 0 39 3t37 4q7 3 30 14t25 14 q2 0 23 7l15 3q16 4 19 4q1 0 10 6l9 6q2 2 14.5 5t13.5 4q10 4 30 21.5t32 19.5q3 0 26 3.5t24 3.5q1 1 5.5 4t9 6.5t4.5 5.5q11 2 58 25q0 1 6 7t6 7q2 2 5 12l3 11q3 2 14.5 16t11.5 18q4 0 4 21t-4 21q0 1 -6 5t-14.5 8.5t-13.5 5.5q-1 0 -23 7t-24 9q-11 4 -28.5 18 t-37.5 32.5t-26 23.5q-1 2 -25.5 24t-27.5 26q-32 25 -37 35q0 1 -5.5 13t-8.5 14q-3 6 -13.5 10.5t-13.5 10.5q-12 24 -12 35q-7 2 -7 14q-25 37 -25 100q0 9 1 29.5t1 30.5v89q0 3 3.5 12t3.5 10q9 21 21 61.5l14 47.5q1 3 4 9t3 7l5 3l10 6t5 5q2 1 12 14t11 13 q45 51 101 80.5t134 51.5q2 0 20.5 7t21.5 7q0 1 17 1q20 0 53.5 -16t48.5 -20h38h16l3 -2q3 -1 6.5 -2.5t5.5 -2.5l5 -7q12 -12 30 -21q2 0 14.5 -3t13.5 -4l9 -6q9 -5 10 -7q41 -38 64 -65.5t41 -66.5q0 -1 3 -10l6.5 -19t4.5 -14q0 -26 7 -35q1 -1 10.5 -13t10.5 -13v-12 q0 -11 -4.5 -31t-4.5 -29q0 -11 4.5 -26t4.5 -25v-17q0 -1 -3.5 -9.5t-3.5 -9.5v-29v-69q0 -19 -9 -35q0 -1 -2.5 -10.5t-2.5 -10.5q-2 -4 -7.5 -32t-6.5 -30t-14 -14t-14 -15q-17 -21 -41.5 -69.5t-49.5 -74.5q-35 -39 -139 -126q-1 -1 -16 -17.5t-18 -17.5 q-2 -2 -27.5 -14t-28.5 -14l-27 -27q-2 -2 -10 -3.5t-16 -2.5t-9 -1q-12 -4 -22.5 -17t-18.5 -18q-1 -1 -14 -7.5t-14 -6.5q-43 -26 -49 -27q-39 -24 -90 -44q-24 0 -29 -7q-2 0 -11 -2.5t-10 -2.5l-9 -7q-9 -7 -10 -7q-2 0 -13 -1.5l-25 -3.5t-19 -3h-40h-15q-2 0 -13.5 -6 t-12.5 -6h-23q-27 0 -62 10.5t-35 28.5z" />
<glyph unicode=":" horiz-adv-x="534" d="M134 782q14 34 35 53t60 42q14 9 26 9q8 0 52.5 -18t55.5 -25q23 -16 28.5 -32t5.5 -50v-7q-7 -38 -14 -59.5t-21 -41.5t-37.5 -28.5t-60.5 -8.5q-10 0 -26 7q-6 3 -19.5 8t-24.5 8.5t-11 4.5q-18 8 -35 60q0 4 -7 37.5t-7 40.5zM113 119q0 95 82 158q20 -8 36 -10.5 t43 -2.5t40 -1q1 -1 9.5 -4t9.5 -5q11 -2 69 -46q2 0 5 -3.5t4 -3.5q0 -25 7 -56v-12q0 -56 -62 -105q-8 -6 -24 -17t-18 -11h-90q-7 0 -41 21q-1 2 -13.5 13t-14.5 13t-9.5 8.5t-9.5 8.5t-7.5 8t-7 9.5l-4 9.5t-3.5 13t-1 15z" />
<glyph unicode=";" horiz-adv-x="604" d="M135 727q0 50 43 98q6 9 21.5 24.5t19.5 17.5q3 4 21.5 9t28.5 6l29 4q30 3 41 3h10h9l84 -83l13 -28q5 -25 5 -39q0 -40 -5 -45q0 -7 -42 -63q-15 -19 -47.5 -30t-61.5 -11h-16q-2 1 -29 6.5t-33 7.5q-11 4 -14 8q-48 34 -59 48q-18 24 -18 67zM128 -320v9q0 7 8 12 q1 1 11 7.5l19.5 13t11.5 8.5q3 1 17 15.5t17 19.5q10 5 23 5q36 15 62 68t26 96q0 6 -4.5 14t-9.5 10q-32 16 -62 28h-26h-9q-6 0 -20 14q-42 32 -59.5 57t-17.5 68q0 37 41 76.5t79 42.5h38h36q24 -12 30 -16q29 -6 62 -20q13 -4 20.5 -13t16.5 -27.5l10 -20.5 q0 -1 3.5 -4.5t3.5 -4.5q3 -1 14.5 -9t12.5 -10q20 -27 23 -43v-60q0 -54 -9 -90t-33 -92q-3 -6 -9.5 -22.5t-12 -26.5t-14.5 -20l-14 -18.5l-17 -22.5t-16.5 -19.5t-20.5 -19t-20 -12.5q-18 -7 -120 -41h-31h-17q-23 0 -28 6q-15 22 -15 42z" />
<glyph unicode="&#x37e;" horiz-adv-x="604" d="M135 727q0 50 43 98q6 9 21.5 24.5t19.5 17.5q3 4 21.5 9t28.5 6l29 4q30 3 41 3h10h9l84 -83l13 -28q5 -25 5 -39q0 -40 -5 -45q0 -7 -42 -63q-15 -19 -47.5 -30t-61.5 -11h-16q-2 1 -29 6.5t-33 7.5q-11 4 -14 8q-48 34 -59 48q-18 24 -18 67zM128 -320v9q0 7 8 12 q1 1 11 7.5l19.5 13t11.5 8.5q3 1 17 15.5t17 19.5q10 5 23 5q36 15 62 68t26 96q0 6 -4.5 14t-9.5 10q-32 16 -62 28h-26h-9q-6 0 -20 14q-42 32 -59.5 57t-17.5 68q0 37 41 76.5t79 42.5h38h36q24 -12 30 -16q29 -6 62 -20q13 -4 20.5 -13t16.5 -27.5l10 -20.5 q0 -1 3.5 -4.5t3.5 -4.5q3 -1 14.5 -9t12.5 -10q20 -27 23 -43v-60q0 -54 -9 -90t-33 -92q-3 -6 -9.5 -22.5t-12 -26.5t-14.5 -20l-14 -18.5l-17 -22.5t-16.5 -19.5t-20.5 -19t-20 -12.5q-18 -7 -120 -41h-31h-17q-23 0 -28 6q-15 22 -15 42z" />
<glyph unicode="&#x3c;" horiz-adv-x="902" d="M439 292l-28 -3l-21 24q-58 36 -59 36q-8 0 -16.5 7.5t-13 16l-10 19.5l-6.5 13q-5 2 -12.5 5.5l-10.5 5t-8 5t-9 8t-10 12.5l-52 54q-30 6 -63.5 33.5t-33.5 56.5q0 21 19 38t50.5 32.5t39.5 22.5q6 2 18 20t18 18q15 15 30 26t25 21q7 6 7 15q0 8 14 20l50 15l54 54 l28 5q3 1 7.5 8t9.5 9l52 38q16 2 43 39.5t38 40.5q21 8 32.5 24.5t19.5 22.5q16 10 51.5 25t50.5 26q11 -7 20.5 -21t9.5 -29q0 -23 -11.5 -35.5t-31.5 -25t-32 -27.5q-9 0 -28.5 -13.5t-40.5 -30.5t-26 -20q-5 -2 -21.5 -17t-20.5 -19l-53 -37q-3 -2 -17 -18.5t-25.5 -25 t-23.5 -8.5h-5q-10 -25 -16 -29q-10 -5 -12 -5q-14 -4 -27.5 -18t-18.5 -17q-24 -18 -58.5 -39t-61.5 -44q0 -12 9.5 -24t18.5 -12q20 -13 39.5 -27.5t42.5 -33.5t37 -29q0 -1 7.5 -5t10.5 -5q2 0 33.5 -22.5t36.5 -24.5q8 -14 14 -19.5t9.5 -5t11 -2t16.5 -11.5 q8 -14 37 -43.5t42 -29.5q66 -47 73 -53q8 -7 16.5 -15.5l15.5 -15t18 -11.5q5 -3 21 -11.5t25.5 -15t21.5 -16.5t18 -22t6 -25q0 -25 -26 -57.5t-57 -32.5q-8 0 -16 4.5t-20 14.5t-16 12q-5 3 -21.5 6.5t-25.5 9.5l-38 50l-19 9q-10 5 -32 34t-44 40q-9 4 -25.5 18 l-29.5 25.5t-14 11.5z" />
<glyph unicode="=" horiz-adv-x="933" d="M138 310q-5 1 -5 19v20q0 116 48 127h49q13 0 36.5 8.5t39.5 8.5l57 -12q11 0 23 2.5t18 2.5q23 0 71 -10q25 -12 56 -12q18 0 54 8.5t55 8.5l39 -5q10 0 26.5 8.5t27.5 8.5q54 0 80 -40v-26q0 -19 -4.5 -51.5t-4.5 -58.5q-22 -47 -93 -47l-104 7q-122 0 -277 -5 q-17 -1 -58 -9.5t-63 -8.5q-21 0 -44 17.5t-27 38.5zM121 663v41q0 116 48 121h47q12 1 37 12t42 11q10 0 27.5 -9t29.5 -9l40 7q24 0 66 -10q40 -9 59 -9l111 12l39 -5q10 0 26 11.5t28 11.5q46 0 78 -45v-19l-7 -104v-26q-28 -35 -95 -35l-104 11q-159 0 -275 -9 q-15 -1 -58 -6.5t-65 -5.5q-18 0 -43.5 17t-30.5 37z" />
<glyph unicode="&#x3e;" horiz-adv-x="900" d="M513 325l-22 -29h-28q-2 0 -15 -12t-31.5 -26t-31.5 -18q-15 -10 -35.5 -38t-33.5 -36l-17 -5l-40 -54q-6 -3 -24.5 -6t-24.5 -8q-33 -29 -50 -29q-32 0 -56.5 30.5t-24.5 57.5q0 13 6 25t17 21t21 15.5t25 14.5t21 12q15 7 28.5 23t21.5 22l73 51q14 0 41 28t38 46 q13 12 27 13.5t25 22.5q3 6 36 27.5t35 21.5q4 0 16 12l35.5 27.5l45 33.5t40.5 27q8 0 17.5 11.5t9.5 24.5q-29 25 -66 47.5t-56 35.5q-5 3 -18 17.5t-26 19.5l-14 2q-2 3 -5 8.5t-4.5 10t-5 7.5t-7.5 3q-12 0 -24 10t-24 25t-14 17l-54 41q-1 0 -41 32l-43 33 q-42 32 -56 32q-11 15 -30.5 27t-31 24t-11.5 36q0 26 31 52q15 -13 51 -28t50 -26q7 -5 20.5 -21.5t32.5 -23.5q7 -3 36 -40.5t46 -40.5q7 -2 7 -4l29.5 -23t17 -15t8 -8.5t7.5 -5.5h28q4 -4 22 -25.5t29 -29.5q19 -9 32 -16t19.5 -13t9.5 -9t6 -9t4 -7q6 -6 24.5 -16.5 t32.5 -26.5q5 0 18 -19.5t17 -21.5q1 -1 38 -20t53 -35.5t16 -38.5q0 -28 -31.5 -55t-61.5 -35q-9 -2 -28.5 -27t-23.5 -25q-6 -8 -10.5 -13t-9.5 -8.5t-8 -5t-10.5 -4.5t-11.5 -5q-2 -3 -10.5 -18.5t-18.5 -27t-20 -11.5l-10 -4q-26 -5 -45 -24z" />
<glyph unicode="?" horiz-adv-x="750" d="M164 391q0 3 3.5 34t3.5 35v327q29 50 69 50q22 0 42 -15q24 -11 46 -11q23 0 50 11q13 2 28 12l14.5 7.5l10 5.5t8.5 7.5t6.5 7t8 10.5t9.5 12q1 1 4 4.5t5 6.5l3 3q10 5 23 5q4 8 12 16q41 65 41 109v1q0 8 -6 16q-17 24 -33 69t-35 83t-48 61q-20 14 -28 14 q-30 -7 -83 -7q-50 0 -85 7q-26 4 -52 39.5t-26 62.5q0 75 47 105t130 30q64 0 88 -9q6 -1 34.5 -16t34.5 -19q5 -2 17 -5.5t20 -8t13 -13.5q6 -6 12 -35q7 -10 23.5 -31t26 -37.5t13.5 -35.5q2 -2 4.5 -22t2.5 -24q3 -14 23 -43.5t20 -48.5q0 -13 -4.5 -39.5t-4.5 -40.5 q0 -40 9 -74q0 -1 3.5 -9.5t3.5 -9.5v-7v-9q-2 -9 -5.5 -30l-6.5 -38.5t-4 -19.5q0 -2 -8.5 -17.5t-10.5 -17.5q-7 -11 -7 -15q-4 -8 -8 -28q0 -1 -6 -9.5t-6 -9.5q-14 -17 -14 -28q-1 -1 -4.5 -11t-4.5 -11q-24 -31 -60 -57t-71 -31h-16h-38q-32 -13 -35 -16h-57 q-15 -6 -21 -47v-51v-52q1 -11 7.5 -37t6.5 -41q0 -32 -24.5 -62t-54.5 -30q-27 0 -43 24t-16 54zM115 52q0 4 -3 30.5t-3 31.5v7v14q0 42 12 55q59 56 143 56q42 0 72 -44t30 -86q0 -11 -2 -20.5t-7.5 -18.5l-8.5 -14t-13.5 -13.5l-13.5 -11t-17 -11.5t-16 -10t-17 -14 t-17 -13h-9q-31 0 -68.5 18.5t-61.5 43.5z" />
<glyph unicode="@" horiz-adv-x="1554" d="M589 502q0 -31 19 -40q10 -10 19 -10q42 0 81 39l122 118l83 111l43 46l47 96l20 79q0 1 1 5l1 5q0 24 -10 33l-7 11q-7 0 -9 1q-12 0 -12 2h-16l-3 -2q-3 0 -15 -5t-25.5 -11.5t-16.5 -7.5q-7 -1 -12 -10q-3 -2 -32 -27t-32 -28l-9 -11h-12l-76 -81q-13 -13 -16 -30 q-1 -3 -3 -10.5t-4 -11.5q-6 -9 -19 -22.5t-17 -19.5q-13 -19 -22 -36l-64 -114v-9q-4 -38 -4 -60zM830 407v10q14 32 22 47q7 10 7 29q-2 10 -2 14q0 5 -5.5 12t-11.5 7q-1 0 -7 -4q-2 0 -5 -1.5t-4 -1.5l-8 -7q-6 -9 -30 -28l-59 -38q-4 -5 -17.5 -18.5t-18.5 -17.5 q-47 -50 -126 -61h-30q-39 0 -58 6q-5 0 -9 7q-42 22 -57 77q-5 18 -5 49v22q0 21 15 57q21 50 64 130q5 6 12.5 17.5t10.5 15.5l5 12l52 62q3 6 14 12t14 9l84 71l4 7q6 6 55 62q1 1 5.5 4.5t5.5 4.5l1 2l11 1q12 2 24 18q76 60 168 76q20 5 65 5h9q7 -2 16.5 -7.5 t14.5 -6.5q6 -3 11 -3h24l2 1q10 8 25 30q1 1 6.5 6t7 7t6.5 6t7.5 5.5l7.5 4.5t8.5 4t8 2t9.5 1h12q26 -26 26 -67q0 -42 -36 -108q-1 -5 -7 -32q0 -7 -4 -11l-110 -226q-2 -6 -2 -14q0 -9 -2 -16q-25 -55 -33 -71v-3q-8 -24 -10 -28q-1 -1 -3.5 -5t-4 -8.5t-1.5 -8.5 q0 -28 16 -28q13 0 38 19l112 64q10 7 14 9q38 32 61 53.5t51 53t44 64.5t21 69q7 32 7 75q0 9 -4 30.5t-5 31.5l-21 50.5l-21.5 51.5t-17.5 37t-21 37h-2l-71 97q-24 9 -59.5 32.5t-46.5 29.5q-79 49 -115 54q-33 -5 -35 -5h-17q-16 0 -26 -2l-37 17q-83 0 -112 -32 q-82 -8 -134 -29.5t-85 -54t-79 -98.5l-27 -28l-38 -57q-13 -13 -13 -38l-50 -124q-6 -13 -10 -33t-7.5 -46t-4.5 -32q-1 -3 -12 -34t-11 -42q9 -144 73 -275q8 -11 12.5 -33t14.5 -43t32 -35q32 -67 62 -88q18 -14 45 -47t49 -52q18 -3 56.5 -16.5t43.5 -14.5l62 -19l94 2 q45 7 79 7q24 0 47 -3t24 -3q3 0 12 -2.5t21 -2.5q19 0 40.5 10t37.5 13q4 4 63 37.5t63 33.5q55 0 55 -30q0 -25 -39 -67q-25 -38 -39.5 -48.5t-30.5 -10.5q-19 0 -45 -11q-66 -29 -129 -29l3 2q-8 -2 -40 -2h-136q-37 0 -45 2q-36 0 -76.5 7t-90.5 19.5t-75 16.5 q-2 0 -7.5 3t-6.5 4q-69 52 -121 80l-35 6q-11 4 -60 47.5t-52 55.5l-80 140q-19 44 -47.5 144.5t-28.5 133.5q0 7 3.5 16.5t3.5 16.5l-7 59q0 27 8 75t19 101.5t14 69.5q6 24 21 39q14 17 24 50.5t19 46.5q5 8 21 20t16 29l119 121l85 43q1 1 6 7t8 9l50 17l135 66l263 52 h57l52 -25l26 4l71 -24q123 -50 133 -58q38 -38 92 -70q17 -10 58 -68t45 -74q2 -10 2.5 -30.5t5 -31.5t18.5 -20q45 -193 45 -226q0 -14 -1.5 -23.5t-6 -22.5t-6.5 -20q-5 -8 -13 -19.5t-12.5 -17t-7.5 -12.5t-3 -12q-12 -16 -30.5 -52.5t-45.5 -59.5q-67 -55 -98.5 -76 t-109.5 -66l-65 -55l-9 -7l-10 -8q-9 -8 -11 -9q-7 -6 -22 -11t-18 -7q-7 -5 -26 -22t-31 -23l-34 -10h-4l-65 10q-9 5 -13 5q-2 3 -10 9.5t-10 9.5q-12 17 -12 39z" />
<glyph unicode="A" d="M472 711v-2q0 -2 1.5 -7t2.5 -9.5t1 -5.5q13 -22 21.5 -34.5t25.5 -23.5t37 -11q13 0 35 7.5t35 7.5q12 0 34.5 -4t34.5 -4h7q5 2 23 11t20 9q7 7 7 40q0 20 -14 57.5t-15 41.5l-56 181l-12.5 38t-14.5 45q-9 21 -21 56q-11 14 -14 15q-16 0 -26.5 -21t-15.5 -43v-20 q-1 -3 -10.5 -20.5t-11.5 -19.5q0 -39 -5 -64q-3 -13 -17.5 -41t-17.5 -42q0 -4 -3 -25t-4 -24q-1 -1 -11 -21l-11 -22q-4 -29 -5 -42v-3zM1221 -7h-113q-2 0 -36 3.5t-38 3.5q-6 0 -53.5 1t-79.5 1q-34 0 -80.5 -1t-51.5 -1q-21 19 -21 35q0 9 9 27q0 4 3.5 12t8.5 9 q4 0 22.5 3t19.5 4q4 1 22.5 14t20.5 14q1 2 18.5 4.5t22.5 2.5l6 6v35q0 32 -8 67.5t-21 78.5t-18 63q-1 3 -8 35t-8 35q0 3 -6 18t-6 16q-1 3 -4.5 14.5t-6 16.5l-6.5 13t-10 12.5t-14 5.5q-19 7 -51 7l-12 -7q-1 0 -10 -2.5t-12 -2.5h-55q-97 0 -146 -8l-14 -7 q-42 -7 -83 -7l-7 -7l-27 -152q-17 -19 -23 -42.5t-7 -55.5t-5 -48q0 -3 -6.5 -14t-8.5 -13l8 -16q5 -5 12 -19q2 -1 27 -7.5t30 -8.5q1 0 15.5 -3.5t19 -4.5t18.5 -5t20.5 -7l17.5 -8t16.5 -10.5l12.5 -12.5t9.5 -16t2.5 -19v-17q-1 -4 -12 -15t-16 -13q-15 0 -97 -3.5 t-98 -3.5h-139h-138q-1 1 -4 7.5t-5 8.5q-1 6 -4.5 20.5t-5.5 27.5t-2 24q0 18 42 31q28 0 43 6q75 34 95 48l10 16v97q11 1 21 23t18.5 51t12.5 36q1 1 14.5 13t13.5 15q1 2 4 26t3 29q10 25 16 30l12 116q16 22 27 91q7 7 7 21q1 1 8 9.5t8 9.5q3 11 12 64v28q10 23 29 55 q2 3 7 21t5 21q4 5 14 31l9 26q7 20 18 65.5t17 65.5q2 6 20 43t19 61q2 2 2 10q0 6 -1 18.5t-1 13.5q4 5 17 27.5t13 27.5v15v39q3 15 14 29q15 10 20 14l28 18.5t26.5 17t25.5 10t35 4.5q3 0 19 -1t19 -1q31 -26 34 -41q8 -28 15.5 -81.5t14.5 -77.5l5 -14q7 -16 7 -21 v-35q3 -13 13.5 -41.5t13.5 -42.5q3 -5 8.5 -40.5t5.5 -42.5q1 -1 4 -11.5t6.5 -19.5t5.5 -9l40 -161q21 -35 37 -82t21.5 -73.5l17.5 -88.5q5 -10 8 -19q11 -27 31 -83t32 -85q0 -2 -3.5 -22.5t-5.5 -25.5v-9v-5q16 -21 29 -43t22.5 -55t22 -58.5t38.5 -44.5q0 -1 3.5 -4.5 t3.5 -4.5q4 -1 15.5 -7t12.5 -6q8 -2 46 -7t46 -5q41 -20 41 -35q0 -10 -13 -47t-21 -38h-23h-12q-19 0 -29 7z" />
<glyph unicode="B" horiz-adv-x="1296" d="M502 932q0 -38 29 -119q2 -5 8 -18.5t8 -17.5t8 -13t12.5 -11.5t17 -5.5t24.5 -3h5l12.5 6.5l19.5 10.5t10 5q24 7 62 7q21 3 57 27t54 43q14 12 25 32.5t18 29.5q0 1 9.5 10.5t9.5 10.5q7 7 16 29q0 21 14 88v11v10q0 6 -3 22.5t-4 18.5q-3 11 -13.5 20t-14.5 15 q-2 1 -7.5 14t-6.5 14l-55 57q-24 18 -89 43.5t-89 25.5q-41 0 -94 -7q-8 -13 -12 -30t-5 -29t-1.5 -33.5t-1.5 -31.5q-1 -15 -12 -39.5t-11 -37.5t4.5 -37t4.5 -37q0 -14 -4.5 -40t-4.5 -40zM511 112l64 -39q0 -4 10 -4q31 0 85 9q11 1 33.5 4.5t39 6.5t17.5 3q4 0 25 17 t25 17q138 98 138 199v11l-4 12q-3 13 -3 14v70q-10 21 -15 26q0 2 -2.5 5t-2.5 4q-2 2 -14.5 27t-15.5 28q0 5 -27 35q-6 7 -21 17.5t-21 17.5q-18 26 -19 27q-13 10 -32.5 18.5t-34 13t-39 10.5t-34.5 9q-3 0 -27.5 6t-26.5 6q-1 0 -14.5 0.5t-18.5 0.5q-2 0 -15 -0.5 t-16 -0.5q-8 -16 -14 -19q-1 -3 -7 -15t-9.5 -20t-3.5 -9q-1 -2 -4 -33.5t-5 -35.5q-1 -10 -6.5 -46.5t-5.5 -57.5v-22q0 -2 3.5 -26.5t3.5 -27.5q0 -5 1 -44t1 -65q0 -27 -1 -65t-1 -42zM94 -5q-28 5 -28 29q0 38 12 49q8 0 23 5q5 0 34.5 3.5t34.5 3.5h69q15 1 39.5 9.5 t29.5 17.5q9 40 9 58l-5 12q-4 12 -4 13q0 2 4.5 21.5t4.5 22.5v34q0 30 -8 87t-8 86v7q0 2 3.5 17.5t3.5 17.5v40v100q16 56 16 76q0 1 -3.5 13t-3.5 15v7v20q-1 1 -8 9.5t-8 9.5v6v1q6 18 16 28q5 30 5 87q0 69 14 102q0 7 1 46t1 45q0 10 -0.5 32t-1 39.5t-0.5 18.5 q0 37 -7 54q-4 36 -21 43q-58 0 -117 7q-35 0 -49 7q-14 6 -41 21q-4 2 -23 21v5q0 18 9.5 34t25.5 23h98q80 0 238.5 -8t239.5 -8q7 0 52 1t53 1q14 7 23 7l12 -7q2 -1 28 -7t29 -7q1 0 14 -7t14 -7q80 -35 119 -62q10 -8 15 -13.5t10 -16.5t10 -20q6 -12 17.5 -32.5 t15 -27.5t9.5 -22.5t8 -27t3.5 -30t1.5 -42.5v-22q0 -112 -21 -158q-4 -2 -18.5 -25.5t-15.5 -27.5q-5 -7 -10 -18.5t-10.5 -19t-14.5 -13.5q-14 -8 -42 -20.5t-48.5 -24.5t-35.5 -29q10 -17 40.5 -27.5t35.5 -13.5q11 -9 55 -35q22 -17 42.5 -46t29.5 -46.5l27 -54.5 q35 -75 35 -137v-8q-25 -108 -64 -175q-8 -13 -16 -21.5t-20 -20t-20 -20.5q-40 -48 -41 -49t-12.5 -6.5t-15.5 -8.5q-12 -3 -49.5 -16.5t-47.5 -18.5q-115 0 -180 -5q-4 0 -38.5 -3.5t-39.5 -3.5h-7q-12 0 -20 7h-19q-22 0 -63.5 4t-63.5 4q-31 0 -69 -8q-1 0 -8 -3l-7 -4 h-2q-8 0 -23 3.5t-22 3.5q-15 0 -43.5 -3.5t-43.5 -3.5q-69 0 -143 7z" />
<glyph unicode="C" horiz-adv-x="1362" d="M127 562l-16 28l-3 22q-2 23 -5 52.5t-4 44.5v12v16q12 144 21 180q4 28 17.5 59t25 49.5t33.5 50.5q5 9 38.5 56.5t37.5 54.5q35 19 87.5 68t71.5 63q3 3 12.5 9t10.5 7l12 4q13 3 15 3q3 0 41 13t42 14q48 14 149 14h80h84l77 -20l39.5 -16.5l44 -18.5t40.5 -14h2 q20 0 56 14.5t55 14.5q17 0 17 -38q0 -7 -1 -19t-1 -15t2 -14t2 -12v-55v-21q1 -18 12.5 -54t11.5 -57q0 -50 -9 -77t-43 -42q-16 -9 -28 -9l-57 29q-3 11 -5 14q-3 10 -24 72.5t-24 73.5q-2 3 -20.5 27.5t-23.5 29.5q-36 35 -46 39q-10 7 -58 7q-1 0 -9.5 4t-9.5 5h-25h-9 q-3 0 -16 19q0 3 2.5 13t2.5 11q-2 0 -14.5 2.5t-16.5 2.5h-1q-1 0 -6.5 -6.5t-7.5 -6.5q-20 -16 -28 -16h-55q-2 0 -11 -2.5t-10 -2.5h-10q-7 0 -19.5 2.5t-18.5 2.5q-31 0 -56 -19l-34.5 -35t-36.5 -36q-10 -5 -12 -7q-4 -2 -18 -13.5t-16 -14.5q-10 -11 -36.5 -50.5 t-33.5 -52.5q-1 0 -5 -10t-9 -24t-8 -20q0 -7 -12 -43q-11 -14 -23 -49v-55v-22q0 -17 -12 -47v-154q6 -9 7.5 -25.5t4.5 -23.5l7 -5q8 -18 13 -40.5t8.5 -50.5t6.5 -42q0 -1 3.5 -7t3.5 -7l18 -41.5t20 -44.5t20 -37t28 -40t33 -32q35 -28 55 -35q3 -1 31.5 -6t31.5 -6 q6 -4 19 -17.5t15 -17.5q21 -7 70 -7q40 -8 41 -8q30 2 61.5 17.5t49.5 37.5q7 14 8 14q7 10 28 10q5 0 12.5 -0.5t10.5 -0.5h3q13 0 16 7q7 13 34 39q2 5 13.5 26.5t14.5 24.5l16 21.5t18.5 26.5t13.5 28q10 24 28 97l3 16q4 16 4 18q15 69 78 69q37 0 53 -26t16 -64 q0 -26 -9 -41v-154q9 -10 9 -19v-7q-1 -2 -10 -29t-12 -33q-1 -2 -2.5 -6t-3 -6.5t-1.5 -3.5q-26 -19 -76 -26.5t-71 -20.5q-3 -4 -20.5 -18.5t-19.5 -15.5q-51 -39 -99 -50l-47 -13.5l-54 -15t-46.5 -9t-54.5 -4.5q-135 0 -268 42q-16 4 -29 24t-22 26q-3 1 -16.5 9 l-30 17.5t-22.5 13.5q-3 2 -7 4t-5.5 2.5t-4 2.5t-4.5 5t-6 8q-2 2 -14 20t-14 22q-19 15 -35 34q-20 27 -26 40q-50 83 -70 147t-21 152z" />
<glyph unicode="D" horiz-adv-x="1526" d="M504 362q2 -10 4.5 -60.5t3.5 -57.5q3 -35 7 -56t17.5 -45.5t36.5 -38.5h43h41q38 13 42 15q4 0 28.5 3t26.5 3q24 4 45 12t42 21.5t33.5 23t38 31l37.5 31.5q8 7 32 23t37 31q7 10 7 15l69 69q2 3 14 17.5t14 17.5q9 12 13.5 37t7.5 32q1 1 11 17t11 18q28 63 28 169 q0 5 -0.5 16.5t-1 20.5t-0.5 10t-3.5 9.5t-3.5 9.5v12q0 10 4.5 27t4.5 27q0 37 -39 95t-46 85q-5 2 -5 34q-33 51 -43 63q-21 5 -39 16.5t-38.5 28t-33.5 24.5q-4 1 -12.5 6l-15 9t-7.5 4q-6 5 -18.5 16.5l-23 20.5t-20.5 13l-32 10.5l-32 10.5q-2 0 -23.5 10t-23.5 10h-24 h-61l-13 3q-13 3 -14 3q-7 3 -11 3q-36 0 -65.5 -13.5t-34.5 -43.5q-7 -24 -7 -69q0 -1 -1 -4.5t-1 -4.5l2 -7q0 -1 3 -9.5t4 -9.5l-3 -188v-35l-4 -175q7 -8 7 -26q0 -16 -7 -47t-8 -43v-22v-47q0 -41 -6 -69q0 -3 -7 -22.5t-7 -20.5v-9q0 -22 20 -60zM303 9q-30 0 -47 -9 h-142q-3 0 -16 6t-18 10q-12 10 -12 39v9q0 16 6 21q1 0 7.5 3t13 5.5t7.5 3.5l4 5q5 4 9.5 9t9 9t5.5 5h14q7 0 20 -3t19 -3q34 0 73 6q46 8 54 69q5 26 8 104v8q0 12 -8 21v52v52q0 4 7.5 57.5t7.5 59.5v134l3 13q3 13 3 14v2v5q-2 13 -7 36.5t-7.5 38t-4.5 35t-2 39.5v52 q0 2 4 14.5t4 13.5v71v25q0 4 3.5 32.5t3.5 31.5v64v54q-19 57 -22 61q-11 3 -104 15q-8 1 -30 1.5t-32 2.5t-24 7.5t-20 18.5t-6 33v6q0 14 8 14q59 17 92 21h28q2 0 9 1t11 1q20 0 26 -9q17 -1 98.5 -7t90.5 -7h7q20 0 41.5 2t48 6t41.5 6h2h5q9 -1 90.5 -7t98.5 -7 q1 0 9.5 -3t9.5 -4h8h7q1 0 13 3.5t15 3.5l2 2l5 -2q1 0 10.5 -3.5t10.5 -3.5q30 -3 110 -19q1 -1 21 -8q2 0 13.5 -7t12.5 -7q17 -7 30 -7q0 -1 9 -6.5t11 -7.5q3 -1 12 -9l19 -16.5t11 -9.5q7 -6 26.5 -13t28.5 -16q11 -8 39.5 -36.5t36.5 -37.5q1 -2 30 -40.5t33 -42.5 q11 -7 15 -16q14 -18 21 -39.5t11.5 -49t9.5 -42.5q0 -1 6 -13.5t6 -14.5q1 -1 3 -5t3.5 -8.5t1.5 -5.5q7 -20 19 -40.5t17.5 -37.5t5.5 -47q0 -18 -14 -50t-14 -50q0 -15 3.5 -45t3.5 -45v-28l-7 -13q-7 -12 -7 -14v-12v-30q-8 -16 -15 -21q-8 -15 -17 -49.5t-11 -40.5 q-5 -20 -30 -50.5t-30 -39.5q-53 -88 -120 -138q-2 -3 -20.5 -12t-19.5 -10l-26.5 -19t-37.5 -21q-14 -7 -43.5 -17.5t-50.5 -21t-37 -25.5q-126 -11 -154 -14q-1 0 -13 -3.5t-15 -3.5q-67 -7 -145 -7h-90h-85q-20 1 -66 8.5t-72 7.5z" />
<glyph unicode="E" horiz-adv-x="1450" d="M510 1263v-2v2zM68 47v1q0 15 14 31t32 16q4 0 19 1t23 1h20.5t15.5 -0.5t10 -1t6 -0.5h3h11q83 0 93 31v50q0 91 7 167q2 16 10 43q-1 3 -1 15q0 26 3 80q0 3 3 12q0 28 4 80q0 1 -7 38q-7 42 -7 62v111q-5 5 -5 34q5 70 5 109q0 6 4 16q0 3 1.5 9t1.5 8q0 14 -7 35 q-5 17 -5 34q0 40 2 59q3 57 3 59q0 8 -1.5 29.5t-1.5 29.5q-2 21 -2 50q-8 20 -42.5 29t-64.5 9q-5 0 -23 -5q-18 -4 -26 -4q-34 0 -66 12.5t-32 39.5q0 26 10 28q25 8 52 10q12 -1 88 -5q54 -3 90 -3q19 -7 66 -7q15 3 24 5q5 2 12 2h118q6 0 19 3q14 4 19 5h304 q35 0 71 -5q18 -3 30 -3q27 0 53 3q45 5 52 5q16 0 33 -2t26.5 -3.5t9.5 -2.5q6 0 33.5 -3t30.5 -4q30 -7 38 -52q7 -31 7 -75q0 -98 -5 -124q-1 -9 -3 -21.5t-3 -20t-1 -8.5v-28q0 -21 -10 -35q-4 -1 -21 -1q-30 0 -70.5 53t-64.5 101l-19 43q-18 41 -21 43q-20 31 -43 31 h-173q-34 12 -133 16q-5 0 -71 3q-10 0 -33 7q-23 9 -36 9q-12 0 -30 -28q-5 -5 -5 -8q2 -14 2 -87q0 -74 -2 -86q0 -20 -5 -33q-7 -28 -7 -42q6 -27 9 -38q12 -41 12 -79q0 -15 -4 -51l-5 -51v-35l5 -9q0 -3 40 -3q7 -2 52 -2t54 2l2 -1q2 -1 3 -1q10 -7 31 -7q11 0 31 4 q3 0 13.5 2.5t21.5 2.5q19 -4 27 -5q18 -4 26 -4q22 0 35.5 22t18.5 49q0 67 7 76l12 27v-1v9q6 34 19 38q2 2 16.5 7t19.5 5q17 0 30.5 -12t18.5 -24v-237q0 -19 2 -35q0 -7 1 -15t1.5 -13t0.5 -7q0 -7 -10 -69q-9 -44 -9 -62q-3 -10 -3 -24q-2 -21 -3.5 -30t-7 -24.5 t-16 -22t-27.5 -6.5q-48 0 -50 86q0 2 -1 7.5t-1 6.5q-4 23 -6.5 34.5t-10 33.5t-15.5 34t-22 23t-31 13l-38 4q-9 1 -34 2.5t-32 2.5q-12 0 -31 -1t-26 -1q-24 0 -27 2q-7 0 -11 2q-10 3 -14 3h-17q-14 0 -28 -10l-17 -10h-29q1 -9 1 -28q0 -7 -3 -14q-1 -3 -3.5 -9 t-4 -10.5t-1.5 -6.5q0 -3 4 -21q2 -5 2 -10q1 -2 6 -55q2 -2 2 -9v-2q7 -4 7 -5q9 -24 14 -62q5 -47 5 -153v-103q2 -18 12.5 -30t29.5 -16.5t33.5 -6t35.5 -1.5h34q17 5 96 5q2 0 9 1t11 1q52 5 61 7q7 2 12 5q10 4 16 7q5 0 17.5 -5.5t14.5 -8.5q16 -2 63 -2q59 0 60 2 q4 2 6 2q28 0 51 14l13 8h-2q12 6 36 11q27 6 33 12q1 1 4 3t5 4l15 13l16 14t8 7q2 2 6 11q5 13 7 15q16 37 24 52.5t26.5 35.5t45.5 32q4 0 16 7l17 7q4 0 12.5 -7.5t8.5 -11.5v-35q0 -1 5 -16q11 -26 11 -33v-29q0 -55 -7 -125q-6 -26 -22 -43t-41 -24.5t-46 -9.5t-50 -2 h-87q-12 9 -35 9q-1 0 -15 -4q-14 -5 -19 -5q-30 -7 -94 -7h-479q-17 0 -38 7q-4 1 -11.5 3.5t-13 4t-8.5 1.5t-15 -4q-1 0 -3.5 -0.5t-6 -1.5t-6.5 -1q-7 -2 -15 -2q-7 0 -47 -9q-67 -12 -69 -12h-21l-139 -3q-4 0 -13 25t-12 39z" />
<glyph unicode="F" horiz-adv-x="1255" d="M96 73q0 22 19 41t42 19q10 0 30 -4t32 -4q48 0 61 22q1 5 6.5 23t5.5 20v19v23q0 1 -2.5 23t-2.5 24q0 23 5 36v465q-5 26 -5 61v15q0 14 5 21v168q15 39 15 121v23q0 20 -18.5 62t-36.5 45q-18 -4 -47 -4q-31 0 -45 4q-18 0 -34 14t-16 32q0 4 1 6.5t2 4.5l2.5 5l3.5 7 q24 42 64 47t109 8h69q46 0 136 -7.5t136 -7.5q65 0 112 7q1 0 10 3.5t11 4.5h242q5 -2 69 -15q1 0 22 0.5t33 0.5q20 0 23 -1q2 0 19 -11t23 -17q6 -10 6 -12q9 -30 14 -57v-45v-17q0 -4 3.5 -32t3.5 -31v-12v-8q-10 -90 -15 -90l-35 -35h-12l-50 35q-13 13 -19 27 q-3 3 -14.5 23.5t-13.5 25.5l-12.5 21t-15 24l-14 21t-17.5 22t-19 17q-2 0 -26 12q-23 19 -29 30q-55 5 -69 5h-187q-4 0 -39 3.5t-39 3.5h-7q-23 0 -37.5 -9.5t-22.5 -33t-10 -34.5t-5 -41q-1 -5 -1 -7q-16 -178 -16 -238q0 -82 9 -130q6 -35 59 -35q17 0 48 8t49 8 q12 0 35 -4.5t34 -4.5q26 0 60.5 22t34.5 47q0 2 -4.5 18t-4.5 17q0 82 64 154q12 12 28 12q36 0 50 -97q0 -2 -0.5 -13.5t-1 -28t-0.5 -27.5q0 -24 2 -28q0 -1 6 -17t6 -17v-14v-12q0 -3 -3.5 -15.5t-3.5 -14.5v-117q0 -4 -3 -21t-7 -36l-3 -19v-21v-7q-5 -36 -14 -64 q-14 -49 -21 -56q-5 -13 -38 -13q-13 0 -22.5 4.5t-15.5 14t-9 17.5l-7.5 21l-6.5 19q0 4 -5 18.5t-7 15.5q-5 15 -10.5 46t-15.5 47t-36 27h-24q-32 0 -83.5 7.5t-82.5 7.5q-5 0 -24.5 -1.5t-22.5 -1.5q-10 -16 -19 -47t-9 -52q0 -49 7 -95q0 -1 3.5 -13.5t3.5 -14.5 q0 -3 -3.5 -40.5t-3.5 -42.5v-38v-39q0 -8 3.5 -52.5t3.5 -51.5q4 -13 19 -25.5t30 -16.5h15h40q11 0 21 -5q1 -2 7.5 -4.5t7.5 -2.5q50 -9 76 -9q21 -7 21 -57v-10q0 -21 -9 -29q-1 -3 -11 -8t-16 -6q-1 -1 -16 -4t-19 -3q-61 -21 -79 -21t-55 10t-53 11q-59 0 -174 7h-104 q-40 1 -69.5 18t-29.5 53z" />
<glyph unicode="G" horiz-adv-x="1432" d="M102 555v70v69q0 2 3.5 24t3.5 26v76q8 83 78 201l10 15l21.5 30.5t15.5 23.5l7 7q1 1 13.5 23.5t14.5 24.5q4 6 23 25t27 24q1 2 19 14t22 13l4 5q5 4 9 9t8.5 9t6.5 5q4 8 41 23q18 10 49 36t41 33q8 5 14 6.5t16.5 2.5t18.5 3l83 29h48q1 0 10.5 2.5t10.5 2.5h9 q41 0 119 -9t114 -10q14 -11 35.5 -17t49.5 -10.5t42 -8.5q11 -3 31.5 -16t37.5 -19l38.5 -10.5t30.5 -9t20 -9t16 -12.5t8 -18.5t5.5 -28t0.5 -40.5q0 -34 -7.5 -68.5t-31 -65t-59.5 -30.5q-19 0 -21 2q-5 0 -18.5 8t-16.5 13q-67 81 -69 83q-5 34 -16 48l-30.5 42.5 t-32 29t-47.5 18.5h-35h-12q-9 0 -43 23q-16 6 -47 6h-33h-52q-18 -3 -30.5 -11t-27 -23t-25.5 -23l-7 -3q-7 -3 -13.5 -5.5t-6.5 -3.5q-2 -3 -28 -29l-13 -10l-14.5 -11.5t-12 -12t-9.5 -15.5q-9 -29 -15 -34q-4 -10 -35 -35q-4 -11 -19 -34q-1 -1 -8 -9.5t-13 -16.5t-6 -9 q-7 -9 -12.5 -32t-10.5 -32l-5 -5q-10 -14 -15.5 -33.5t-8.5 -43t-6 -34.5q0 -3 -6 -18.5t-6 -16.5q-27 -75 -27 -153q0 -72 16 -129t53 -122q4 -8 11 -26t14 -32.5t15 -23.5q30 -35 50 -50q5 -4 24 -7.5t24 -6.5q20 -4 28 -12q17 -14 76 -78q64 -22 173 -22q39 0 83 29 q3 2 12.5 9.5t13 10.5t9.5 9t9.5 12.5t5.5 14.5q0 6 3 32.5t4 29.5q0 13 7 29q0 1 3 10l2 9v44q2 17 12.5 60.5t10.5 72.5q0 115 -35 150q-21 21 -60 21h-11h-20q-25 2 -57.5 24t-32.5 45v7q1 3 6 8.5t9 9t5 3.5h168q9 9 35 9q17 0 46 -11.5t45 -11.5q2 0 6 1t7 1 q2 0 20 9.5t19 9.5t14 1t17 1h18q25 0 36 -12h138q12 0 17.5 -12.5t5.5 -24.5q0 -31 -29.5 -44.5t-65 -13.5t-67 -12.5t-34.5 -41.5q-3 -59 -15 -146l1 -24q1 -23 1 -36q0 -21 -2 -24q0 -2 -2.5 -20.5t-2.5 -21.5v-57v-59q0 -2 1.5 -5.5t2.5 -6.5l1 -3q15 -12 29 -35 q2 -3 5 -13.5t5.5 -21t3.5 -12.5q-1 -14 -13.5 -22t-32 -13.5t-23.5 -7.5q-2 0 -14.5 -10.5t-13.5 -10.5l-8 -3q-9 -3 -19.5 -6t-13.5 -4q-14 0 -28 -7q-2 0 -14.5 -7t-13.5 -7q-3 -1 -41 -4t-43 -5q-12 0 -54 -12h-265q-17 0 -50 16.5t-40 18.5q-53 14 -62 20q-2 0 -12 7 l-10 7q-1 0 -20 7t-22 9q-12 5 -31.5 24t-23.5 22q-21 21 -35 28q-1 2 -20 10.5t-21 10.5q-17 25 -21 36q-7 4 -7 7q-33 41 -49 75q-5 15 -5 29q-8 18 -28.5 52.5t-28.5 51.5q-9 20 -14.5 62t-13.5 62z" />
<glyph unicode="H" horiz-adv-x="1720" d="M97 62q0 7 12.5 29t17.5 25q5 7 34 7q29 5 78 8q1 0 12.5 8.5t16.5 12.5t14 12t13.5 15.5t6.5 14.5q-2 8 -2 62t2 62q0 216 7 291q0 3 2.5 15t2.5 14v4q0 9 -2.5 27.5t-2.5 29.5q0 2 -1 8.5t-1 10.5q0 10 7 17v263q8 23 8 57q0 13 -4 36.5t-4 36.5q0 8 3.5 25t3.5 25v9 q0 2 -5.5 20t-6.5 23q-3 9 -8.5 13.5t-10.5 6t-15.5 3t-16.5 3.5q0 1 -6 4.5t-13 7t-8 4.5q-3 0 -21.5 6t-20.5 6q-12 7 -48 7q-56 20 -56 39q0 14 16.5 35.5t30.5 21.5q26 0 38 -5h2h3q64 14 191 14h58q21 -14 42 -14h16l10 2l10 3q39 9 92 9q46 0 70.5 -9.5t38.5 -45.5v-5 v-2q-14 -25 -44.5 -39.5t-53.5 -17.5t-61 -5q-42 -59 -42 -63l-3 -211v-19l-4 -175q4 -3 14 -20.5l18.5 -33t9.5 -15.5h624q2 0 14.5 -3.5t15.5 -3.5q5 0 9 2.5t6 7.5t3 8.5t2 9.5t1 7t3.5 42.5t3.5 49.5v181q0 2 3 24t3 23q0 4 -4 12t-8 10v139q0 7 -10 21q-4 5 -7 7 q-5 0 -34 3t-35 3h-5q-10 0 -28 -3t-28 -3q-32 0 -65 17t-33 47q0 27 27.5 43.5t53.5 16.5q66 0 93 -14h201q3 0 18 2.5t17 2.5q12 16 14 16h12q11 0 28 -4.5t29 -4.5t30 4.5t30 4.5h18l9 -3q9 -4 10 -4q2 0 14.5 -1.5t21 -3t19.5 -5t16.5 -11t5.5 -17.5q0 -18 -9.5 -31 t-30 -20t-31 -9.5t-32.5 -6.5q-59 0 -78 -7q-9 0 -12 -6q-5 -5 -18.5 -20.5t-16.5 -20.5v-5v-2q1 -7 6.5 -27t5.5 -37q0 -30 -3.5 -90t-3.5 -90t3.5 -90.5t3.5 -91.5q0 -16 -3.5 -47t-3.5 -48v-27q0 -5 3.5 -43t3.5 -42v-121v-121q-12 -54 -12 -57v-6q0 -8 2.5 -21.5 t2.5 -19.5q0 -15 -2.5 -46t-2.5 -46v-14q0 -2 4.5 -5.5t9.5 -5.5l5 -3q65 -19 69 -20t22.5 -4.5t32.5 -7t30.5 -10t25.5 -16t9 -21.5q0 -35 -30 -51.5t-69 -16.5q-19 0 -28 7q-71 9 -154 9h-53h-113q-3 -5 -41 -16q-1 0 -13 3.5t-15 3.5q-1 0 -15 1t-23 1t-23 -1t-15 -1 l-7.5 11t-7.5 11.5t-4 10t-2 12.5q0 24 16 45q5 4 53 16h13q16 0 44 -4.5t42 -4.5q20 0 31 16t11 38v3q-1 1 -4.5 7t-4.5 7v38v14q0 33 9 47v40q0 40 3.5 120.5t3.5 121.5q0 55 -8 65t-55 13q-4 0 -38.5 3.5t-37.5 3.5q-15 0 -49.5 3t-52.5 3q-15 0 -44 -6.5t-42 -6.5 q-11 0 -32.5 6.5t-31.5 6.5h-14q-6 0 -36 -3t-34 -3l-12 -3q-13 -4 -15 -4q-1 0 -13 3.5t-13 3.5h-78q-1 0 -17 3t-18 3l-8 1q-7 0 -15.5 0.5t-12.5 0.5t-15 -1l-11 -1l-7 -6v-68q0 -33 4.5 -98t4.5 -97q0 -7 -0.5 -21t-1.5 -25v-12q0 -1 -3.5 -16t-3.5 -18v-4q0 -54 21 -88 t69 -55q2 0 14.5 -6t15.5 -6q7 -2 26.5 -5t33 -6t25 -13.5t11.5 -27.5q0 -33 -30 -46t-66 -13h-301q-32 -22 -101 -22q-32 0 -81 27t-49 57z" />
<glyph unicode="I" horiz-adv-x="844" d="M391 7q-35 0 -104.5 -4.5t-103.5 -4.5h-7l-12 2q-11 1 -14.5 2t-15 3t-16 4t-13.5 5.5t-13.5 7.5t-10 9.5t-7.5 12.5t-2 15q0 17 7 22q3 7 21 7q13 1 43.5 2.5t47 4t40.5 8t42.5 17.5t33.5 31q-1 31 3 88t4 83q0 11 -3.5 30.5t-3.5 29.5v18q0 4 3.5 26t3.5 24v150 q0 3 3.5 18.5t3.5 16.5t1 30t1 39q0 6 -1 36t-1 33q0 13 -7 30v8q0 10 8 30t8 33v12q0 21 -9 34v70q0 24 4.5 70t4.5 68v14q-2 2 -5.5 14t-3.5 13q0 5 3.5 16t5.5 12v7q0 17 -13.5 34t-29.5 23q-106 17 -159 28q-49 11 -49 59q0 57 142 57h10q6 0 52.5 -6t51.5 -6 q7 -2 49 -2q41 0 50 2q14 -9 45 -9q27 0 79 8t83 8h56q8 -5 31.5 -15.5t34 -22t10.5 -32.5q0 -17 -12.5 -37t-29.5 -20q-46 -8 -90 -8q-45 0 -98 8q-5 0 -5 -12q0 -2 1 -10.5t3 -16.5l1 -7v-16q0 -14 -10.5 -37.5t-10.5 -36.5v-14q1 -1 4.5 -11.5t4.5 -11.5v-40v-15 q7 -17 7 -21q5 -60 5 -104q0 -21 -10.5 -63.5t-10.5 -65.5v-2q16 -32 16 -42v-36q0 -25 -8 -74.5t-8 -74.5q0 -33 4.5 -96.5t4.5 -95.5v-86q-1 -3 -3 -11t-3.5 -15t-2.5 -9q0 -1 -3.5 -14t-3.5 -15q0 -24 7 -63q3 -11 7 -18.5t13 -12l13 -6.5t18.5 -5t17.5 -4 q2 -2 11.5 -5.5t20 -7t11.5 -3.5q46 -7 97 -7q14 -9 14 -27v-9q0 -15 -5 -26t-9.5 -15.5l-19.5 -19.5q-2 0 -8 -3l-6 -4h-4h-5q-18 1 -128 12t-169 11z" />
<glyph unicode="J" horiz-adv-x="825" d="M-157 -382v29q0 6 27 57q13 21 29 28t46 7q33 0 46.5 -12.5t24 -33.5t27.5 -32q1 0 11 -3.5t12 -3.5q1 0 6 -3.5t6 -3.5q40 -28 128 -28q5 0 9.5 1.5t8.5 4t8.5 6.5t7.5 7.5t7.5 10l6.5 9.5t5.5 10.5t5 10t5 9.5t3.5 8q28 53 28 62q0 13 7 41q0 3 2.5 28.5t2.5 27.5 q3 3 6 19.5t3 21.5q0 4 -4.5 29t-4.5 27q-1 38 -2 115t-3 115q0 1 -3.5 16t-3.5 18v21q0 12 3.5 36t3.5 37q0 11 -3.5 33t-3.5 32v7q0 1 10 53.5t11 59.5v45v15q0 3 3.5 15t3.5 13v12q0 23 -16 45q2 9 2 62q0 52 -2 63q0 21 -6 60.5t-6 58.5q0 34 3.5 101t3.5 100v41 l-4.5 35t-6 49.5t-3.5 26.5q-5 17 -21 41q-1 1 -3 2.5l-4 3t-4 2.5l-2 1h-132q-1 0 -7.5 2.5t-15.5 5.5l-12 4q-22 10 -29 24.5t-7 41.5q0 22 2 26q0 4 10.5 15.5t15.5 12.5h43h42q3 -1 31.5 -8t30.5 -8h28q21 -1 89.5 -6.5t107.5 -5.5q14 0 42 9.5t44 9.5h7q70 0 147 -7 q63 -15 63 -81q0 -21 -7 -30q-10 -5 -16 -5q-37 -12 -92 -12q-4 0 -67 3q-57 -41 -57 -95l3 -22q0 -3 2.5 -34t2.5 -35v-141q0 -157 -5 -269q-1 -3 -3 -20.5t-3.5 -36t-1.5 -20.5v-10q0 -7 4 -18t4 -16v-6q-1 0 -3 -4.5t-3 -9.5l-2 -5q1 -59 1 -176q0 -161 -1 -241 q0 -5 -1.5 -21t-3.5 -34.5t-2 -20.5v-10q0 -13 4 -39t4 -39l-1 -16q0 -3 -7 -15l-7 -12q-12 -54 -12 -85q-3 -7 -6.5 -22t-6 -27t-3.5 -13q-2 -7 -24 -53.5t-33 -64.5q-6 -15 -14.5 -23.5t-23.5 -17t-23 -14.5q-1 -3 -10 -12t-10 -9q-1 -1 -14 -7t-14 -7q-11 -6 -22.5 -13 l-19.5 -11.5t-22 -9.5q-4 -7 -19 -7q-132 -28 -246 -28q-136 0 -136 130z" />
<glyph unicode="K" horiz-adv-x="1439" d="M573 0h-410q-23 0 -50.5 14t-27.5 33q0 31 64 50q36 10 69 15q25 7 50 32t26 50v15v42q0 5 3.5 31t5.5 31v83l12 28v304q0 4 3.5 42t3.5 43v95q0 189 -19 301q-15 60 -50 90q-12 9 -28 9q-7 0 -18 -1t-17 -1q-31 3 -59 24.5t-44 51.5v5q0 12 16.5 26t29.5 18q33 7 57 7 q3 0 20.5 -6.5t21.5 -9.5q52 -5 109 -5q15 0 38 7t36 7h19q1 -1 13 -5t13 -4h132q22 -13 22 -64v-10q-2 -2 -11.5 -12.5t-18 -19t-11.5 -10.5q-7 -7 -16 -7q-43 -25 -56 -55t-13 -80v-50v-66q2 -17 12 -59t10 -70v-2q0 -1 -3 -11t-3 -12q-2 -31 -2 -45v-22q0 -45 27 -64h7 q16 0 41 16.5t37 18.5q36 40 63 62q0 2 8 8.5l16.5 13t9.5 7.5q19 17 62 69l7 6q35 28 104 112q4 4 19 21.5t16 20.5q1 1 4 10.5t3 11.5q37 47 50 62v25q0 50 -35 72q-3 0 -15 3t-14 4q-1 0 -13 6t-15 6q-5 7 -41 7q-8 2 -13 7t-7 9t-4 13.5t-4 13.5q-7 11 -7 14v4 q0 24 32.5 38t59.5 14h7q23 0 34 -16q73 0 116 -5q1 0 11 -3.5t12 -3.5h27q26 0 78.5 6t79.5 6q24 0 41.5 -9.5t17.5 -30.5q0 -9 -4.5 -19t-14.5 -21.5t-19 -20.5t-23.5 -21.5t-23 -19l-24 -17.5t-18.5 -14l-6 -3q-6 -2 -8 -2q-3 -4 -20 -7l-28 -28q-1 -1 -28 -15 q-7 -5 -7 -7q0 -1 -10 -14t-10 -14q-57 -57 -64 -62q-2 0 -13 -21q-14 -16 -28.5 -29t-37 -30t-30.5 -24q-13 -9 -30.5 -32t-26.5 -32q-1 -1 -14 -9.5t-14 -9.5q-52 -52 -54 -55q-15 -43 -15 -70q0 -26 20 -64q3 -4 25 -41t24 -40q10 -15 36 -34.5t33 -27.5l48.5 -58.5 t57.5 -67.5q19 -25 53 -51q18 -11 39 -47t25 -41l21 -21l45 -51t44 -42.5t56 -39.5q11 -5 54.5 -27.5t49.5 -27.5q3 -2 20 -18t23 -24q7 -12 7 -20v-7q-23 -30 -85 -30q-10 0 -29 1t-28 1h-12l-12 -3q-13 -4 -15 -4h-4q-18 0 -53 4.5t-52 4.5h-16q-29 0 -48 -9h-139 q-4 2 -25.5 12t-30 20t-8.5 27q0 22 13.5 32.5t33.5 12.5t39.5 6t33 19t13.5 44v9q-5 2 -18.5 15.5t-15.5 18.5l-7 12l-15.5 15.5l-27 26.5t-14.5 15q-3 6 -33 44.5t-36 45.5q-3 5 -14 15t-14 11q-1 2 -14 8.5t-14 7.5t-3.5 6t-5.5 9t-5 4q-7 9 -23 26.5t-26.5 30.5 t-19.5 28l-5 7q-3 1 -12 7t-10 8q-3 2 -15.5 12.5l-26 22t-14.5 12.5q-22 22 -29 22h-69q-7 0 -19 -30.5t-16 -46.5v-77v-76q0 -3 3.5 -36t3.5 -42q1 -1 5 -15.5t4 -18.5v-50v-19q0 -10 6 -19.5t10 -13t18 -14.5q7 -9 25.5 -24.5t23.5 -17.5q7 -5 31.5 -14.5t41.5 -22 t17 -30.5v-3q-10 -26 -25 -37.5t-43 -11.5q-22 0 -36 7z" />
<glyph unicode="L" horiz-adv-x="1476" d="M66 26q0 36 26 54.5t63 18.5q12 0 34 -4.5t33 -4.5h10q68 48 76 133q5 42 6 117.5t3 104.5q0 3 3.5 32t3.5 32v27v28q-16 197 -16 259v115q9 10 9 33q0 5 -1 15t-1 14q0 10 2 14q0 4 6 29t6 28v5v7q0 5 -2.5 49t-2.5 48v64q-3 8 -23.5 30t-26.5 22h-139q-15 12 -22 17 q-19 19 -19 49q0 48 69 48q9 0 25 -3.5t24 -3.5q14 0 39 7t38 7q0 2 45 2q47 0 52 -2q5 0 55 -3.5t56 -3.5h221q18 -5 38 -28t20 -38q0 -7 -4.5 -11.5t-9.5 -5.5t-13 -3t-10 -2q-7 -5 -16.5 -16t-18 -16.5t-22.5 -5.5q-24 0 -33 8h-90q-14 0 -29 -13.5t-19 -29.5 q-2 -9 -2 -57q0 -39 8 -116t8 -116v-15q0 -8 -3.5 -77.5t-3.5 -76.5q0 -3 3.5 -40t3.5 -42q0 -7 -3.5 -80t-3.5 -81v-109q-7 -77 -7 -119q-2 -2 -5.5 -11t-3.5 -11v-9q0 -143 78 -199h9q9 0 40 7h200q8 1 52 4.5t52 4.5q3 0 15 3t13 3h8q21 0 26 -15q81 -12 128 -12 q8 0 16 1.5t13 3t12 6.5l10 7t10.5 10t9 10l9.5 12.5t9 11.5q3 4 34.5 40.5t34.5 40.5q8 10 9 26t5 25q13 13 15 13q1 1 4 6.5t5.5 9.5t2.5 5q1 2 4.5 13l7 22.5t4.5 13.5q6 20 47 55h5h1q15 -5 24 -12.5t13 -19.5t5 -21t1 -25.5t1 -25.5q0 -2 3 -18l4 -16v-11 q0 -18 -7.5 -48.5t-8.5 -44.5v-125q-3 -39 -41 -41q-7 -1 -52 -4.5t-52 -4.5h-187q-2 0 -10.5 -3.5t-10.5 -3.5q-53 0 -90 -7h-8h-7q-1 0 -16.5 3.5t-18.5 3.5q-43 5 -151 5h-22q-14 0 -126.5 1t-162.5 1h-50q-44 0 -132 -7t-133 -7h-55q-19 6 -27 14.5t-8 25.5z" />
<glyph unicode="M" horiz-adv-x="1872" d="M276 7h-189q-6 0 -16.5 20.5t-10.5 24.5q0 19 14.5 35.5t31.5 16.5q2 0 20.5 1t30.5 1t29 -1t19 -1q2 1 7.5 4.5t6.5 3.5q10 6 41 42q0 7 3.5 48t3.5 49q1 1 2.5 8.5t3.5 15.5t3 10v45v18q0 2 6 24t6 24q23 115 23 147q0 1 -4.5 13t-4.5 15v64q0 108 16 178q0 2 6 20.5 t6 21.5q0 5 7 68l8 72q0 1 3.5 23t3.5 23q0 3 -3.5 11t-7.5 15.5t-4 8.5q0 7 8 23q7 28 7 41q0 27 -7 69q-7 8 -17.5 12.5t-19 5.5t-22 1.5t-19.5 1.5q-3 0 -21 7t-20 7q-13 4 -31.5 7.5t-27.5 6t-20 8.5t-18.5 17t-13.5 30q0 2 3 5t7 6l4 3h21q4 0 32 7t32 7h53h63 q3 0 18 -3l16 -4h147q30 -13 51 -34t46 -56q21 -21 21 -30q1 0 2.5 -6l3 -12.5t3.5 -8.5q4 -10 20 -37t19 -45q0 -3 3.5 -31.5t3.5 -32.5q3 -10 14.5 -32t13.5 -30q0 -1 3.5 -14t3.5 -14q1 -3 15 -19l13 -15q7 -12 7 -49q7 -25 28 -61.5t29 -55.5q5 -25 5 -49q0 -2 3.5 -14 t3.5 -13q4 -14 30.5 -28t26.5 -33v-17q0 -1 -3.5 -13t-3.5 -13q0 -3 12 -43q7 -19 21.5 -38t28.5 -19q8 0 12 6t8 16.5t8 15.5l25 24.5t30 37.5q5 19 5 26q5 18 12 33.5t12 24.5t16 26t17 28q8 13 18 38.5t17 37.5q1 2 14 18t14 17q5 7 9 29.5t5 25.5q11 31 39 84t38 77 q6 13 11 39.5t8 35.5q4 7 26.5 57.5t24.5 54.5q5 20 5 21v3v2q0 2 -2.5 8.5t-2.5 7.5v1v6q13 25 21 38.5t26.5 28t42.5 17.5h24q25 -1 40 -1q20 0 24 1q7 0 43 12q63 16 126 16q7 0 22 -0.5t27 -1.5h12q24 0 51 -19.5t27 -44.5q0 -15 -21 -34t-33 -19q-11 0 -31.5 3.5 t-32.5 3.5q-41 0 -71 -14q-34 -16 -34 -104v-17q0 -14 2 -23.5t5.5 -21t5.5 -21.5q0 -7 1 -41t1 -40q0 -54 -4.5 -176.5t-3.5 -188.5q0 -1 -3.5 -10t-3.5 -10v-5v-3q15 -75 15 -111q0 -17 -7.5 -48t-7.5 -49v-12q0 -19 7 -29q0 -4 0.5 -29t0.5 -30q0 -10 -1 -35v-26l-4 -12 q-3 -12 -3 -15v-16v-10q0 -11 13 -28l28 -35q1 -1 4 -7t3 -8q7 -7 9 -7h27q2 0 20.5 -6t21.5 -6q2 -1 20 -4.5t20 -4.5q34 -10 41 -19q0 -2 1 -8l1 -7q0 -14 -13 -24.5t-30 -10.5h-332q-3 0 -15 -3.5t-13 -3.5h-7h-7q-2 0 -18 -6t-17 -6h-55h-16q-13 0 -27 13t-14 27v7 q4 0 25 3.5t25 3.5q1 0 9.5 3.5t9.5 3.5q34 7 35 8q31 12 34 97q8 50 17 144l11 114q0 13 2 92t2 93q0 22 -1 67.5t-2 82.5t-1 38q0 82 -5 139q0 10 -8 32.5t-16 22.5q-11 0 -17.5 -7t-12 -17.5t-10.5 -15.5q-1 -4 -16 -18t-19 -16q0 -2 -2.5 -8t-2.5 -8q-8 -18 -28.5 -51.5 t-28.5 -52.5q-6 -18 -14.5 -56t-13.5 -54q-1 -9 -9 -19t-10 -16q-1 -1 -3 -9.5t-3.5 -17t-1.5 -9.5l-21 -20.5t-21 -21.5q-5 -5 -9 -22t-5 -19q-5 -20 -5 -21q-2 -1 -9 -10l-7 -9q-7 -18 -14 -54.5t-13 -52.5l-15.5 -36.5t-14.5 -32.5q-2 -13 -34 -70q0 -31 -5 -46 q0 -4 -4 -16l-3 -12l-11.5 -24l-18.5 -38t-12 -23q-4 -2 -13.5 -8.5t-17 -10t-16.5 -3.5q-23 0 -47.5 39.5t-29.5 67.5q-3 10 -13 53.5t-22 71.5q-1 2 -17.5 30.5t-17.5 31.5q-11 19 -19 40.5t-16.5 49t-14.5 43.5q-10 29 -40.5 96t-42.5 105q-5 7 -5 41q-2 1 -8.5 10.5 t-7.5 10.5q0 1 -3 9.5t-3 9.5q-13 33 -16 35q0 30 -5 50l-9.5 19.5t-11.5 21.5l-21 21q-8 10 -18 37.5t-23.5 44.5t-37.5 17h-6q-5 -22 -7 -40.5t-3 -44.5t-2 -42q0 -1 -3 -14l-4 -13v-11q0 -7 3.5 -22t3.5 -24v-6q-15 -69 -15 -98q0 -23 7.5 -66t7.5 -66l-3 -13 q-4 -12 -4 -14v-104q0 -4 -15 -49v-10q0 -15 9 -33v-150q4 -7 13 -38t21 -40q70 -5 104 -19q1 -2 5 -5.5t8.5 -6.5t5.5 -4q5 -2 15.5 -5.5t15 -6t8.5 -8.5t4 -16q0 -18 -10.5 -27.5t-22 -11t-29.5 -1.5q-28 0 -84 3.5t-84 3.5h-26q-2 0 -15 -3.5t-14 -3.5q-4 0 -23 5.5 t-24 8.5z" />
<glyph unicode="N" horiz-adv-x="1681" d="M154 2q-6 2 -18.5 4t-17 3.5t-9 8t-4.5 17.5q0 16 12 38q18 24 53.5 31.5t69 13t47.5 24.5q1 4 6 12.5l9 15.5l4 6v203q7 7 7 19v21v50q0 1 8 41v35q0 15 -4 33t-4 31v17q1 3 4.5 18.5t3.5 16.5q0 15 2.5 63.5t4.5 55.5q0 1 3 11t3 12v69q9 68 13 166q1 1 5 13t4 15 q0 42 -26 83t-66 55q-1 1 -26 6.5t-29 7.5q-14 14 -28 21q-21 7 -34 7q-17 6 -47.5 41t-30.5 49l2 13q2 6 15 22.5t19 21.5l15 3q15 4 20 4h154q17 5 40 5t44 -11.5t32.5 -24t29.5 -35.5t27 -33q1 -2 23 -23.5t24 -24.5q10 -11 22 -35t21 -35q13 -16 42 -39.5t41 -36.5 q16 -17 52 -67.5t69 -89t60 -50.5q54 -96 151 -182q23 -43 35 -57q9 -8 29.5 -18t33.5 -21.5t14 -29.5q5 -4 83 -82q6 -7 16 -23t19.5 -21.5t27.5 -5.5q24 0 27 16q28 81 28 162v32q0 1 -2.5 13.5t-2.5 15.5q-2 2 -2 15q0 8 0.5 18.5t1 18t0.5 8.5q-2 15 -5 81t-4 72 q0 44 -7 76q0 12 -7 22v173q0 9 -7 14q-43 82 -89 92q-17 0 -42 10q-2 0 -14.5 8t-13.5 8q-18 13 -24.5 18.5t-13 18.5t-5.5 30q2 32 45 44l40 1l220 -14q30 0 94.5 7t95.5 7l5 -1l10 -2t6 -2q8 -3 20 -4.5t16 -3t8 -10.5t4 -27q0 -20 -16.5 -35t-29.5 -19.5t-39 -12.5 q-3 0 -31 -11q-27 -13 -45 -27q-20 -22 -28 -30q-12 -12 -20 -59q0 -59 -7 -133v-64v-24q0 -1 -3.5 -10.5t-3.5 -10.5v-33q0 -15 4.5 -42t4.5 -44v-19q0 -23 -9 -35v-119q0 -3 -2.5 -18t-2.5 -17v-97q0 -1 -3.5 -13.5t-3.5 -15.5q-1 -4 -4.5 -31t-4.5 -31v-45q0 -29 8 -85 t8 -85v-5q0 -3 -3.5 -15.5t-3.5 -14.5q-2 -6 -2 -45t2 -45q-3 -3 -9 -9.5l-9 -10t-9 -9t-10.5 -8t-11 -4.5t-12.5 -2l-8 2q-34 11 -59.5 32.5t-60.5 67t-41 52.5q-6 8 -41 45.5t-42 44.5q-26 29 -69.5 88.5t-64.5 84.5q0 4 -5 9q-31 23 -57 48q-19 37 -28 49q-5 5 -6 7 q-1 0 -16.5 12.5t-18.5 14.5q-11 10 -22.5 35.5t-19.5 34.5q-2 4 -26 27.5t-29 27.5q-2 2 -8 11t-6 10q-7 10 -27.5 21.5t-27.5 19.5q-16 33 -23 35l-2 4q-3 3 -6 6.5t-4 4.5q-4 2 -18.5 13.5t-15.5 14.5q-4 2 -29 27t-28 27q-19 22 -35 22q-19 0 -33 -32t-14 -53l-1 -11 v-24v-18v-18.5v-22.5l1 -9q0 -4 6 -32.5t6 -30.5q2 -5 2 -46q0 -28 -1 -74t-1 -48l3 -16q4 -15 4 -18v-8q1 -9 1.5 -20t0.5 -17q0 -17 -4.5 -47t-4.5 -47q0 -10 3.5 -32t3.5 -33q0 -8 -3.5 -23t-3.5 -24q0 -34 10.5 -55.5t31 -31.5t41 -14t50.5 -9t49 -13q5 -2 9.5 -4.5 t8.5 -6t7 -5.5t7.5 -7.5t6.5 -7.5t8 -9t8 -10q9 -9 9 -29v-18q-4 -4 -22.5 -5t-20.5 -3q-33 -14 -68 -14h-22q-22 0 -67 5t-68 5q-25 0 -74 -5t-73 -5h-17q-7 1 -49 3.5t-48 3.5z" />
<glyph unicode="O" horiz-adv-x="1451" d="M343 443q23 -24 51 -76q0 -23 5 -28q23 -55 76 -116q2 -3 11 -12t11 -10q1 -1 7 -13.5t6 -14.5l22 -22q2 -1 24 -10t23 -10l15 -6q77 -56 151 -56q12 0 29.5 9.5t27.5 11.5q3 0 18 3t16 4q9 3 19.5 12t21.5 20.5l15 15.5q3 2 28.5 17.5t28.5 17.5q15 12 41 48t35 56l3 10 l2 10q8 14 28.5 36.5t28.5 40.5q9 22 13 62t6 50q1 1 5 9t4 10v45v17q1 14 10 42t9 43v7q-1 15 -4 47.5l-5.5 58t-2.5 26.5q-13 40 -23 57q-5 15 -15.5 57.5t-18.5 64.5q-25 85 -125 194q-2 10 -14 16l-24 15.5l-27.5 17t-22.5 15.5q-21 12 -22 14q-15 7 -44.5 10t-32.5 4 q-1 0 -7 3l-6 4q-9 2 -14 2q-2 0 -8 -1t-8 -1q-10 -7 -12 -7h-35q-9 0 -34 -14q-18 -8 -62 -43q-2 0 -5.5 -3t-5.5 -6l-3 -3q-4 -3 -35.5 -15t-33.5 -13l-51 -69q-23 -37 -55 -104q-7 -13 -9.5 -42.5t-9.5 -42.5q-1 0 -4.5 -4.5l-7 -9t-4.5 -5.5q0 -1 -3 -14t-3 -15 q-1 -4 -14.5 -39t-13.5 -53v-12q0 -1 4 -17t4 -18t-4 -26.5t-4 -28.5v-24v-17q13 -27 15 -28q0 -48 6 -69q10 -48 13 -85zM606 -16q-1 9 -27 16q-4 2 -34.5 10t-41.5 9q-1 1 -8.5 2.5t-16 3.5t-10.5 3q-1 0 -10 8l-19 16.5t-11 9.5l-35.5 26.5l-41.5 31.5t-35 28.5 t-38.5 34.5t-30.5 32q-2 2 -11 17.5t-10 16.5q-4 7 -14.5 21l-16.5 22.5t-13 21.5t-12 25q0 1 -3 14t-3 14q-4 13 -17 46t-18 52q-4 16 -13 55.5t-15 60.5q0 9 -1 53.5t-1 52.5q0 11 0.5 36t1 46t0.5 22q1 24 9 54t13 45.5t22 56t19 46.5l3 10q3 10 6 19t4 11q4 5 22 22 t22 19q9 11 40 58t56 69q16 15 40.5 23.5t36.5 15.5q3 10 27 30q5 3 32 21.5t31 21.5q17 4 19 5q8 4 50.5 30.5t66.5 26.5q10 0 27 -4t27 -4h10q2 0 13.5 3.5t12.5 3.5t20.5 0.5t26.5 0.5q84 0 135 -22q4 -1 29 -14t28 -14q1 -1 12.5 -4t13.5 -3q12 -4 24.5 -12.5t26 -19.5 t20.5 -16q10 -8 34.5 -18.5t34.5 -16.5l7 -7q1 -2 3.5 -10.5t5 -16t3.5 -7.5q5 -8 11.5 -12.5t16.5 -8.5t15 -7q23 -15 51 -55t39 -71q5 -5 5 -28q2 -2 3.5 -7t3 -8.5t2.5 -3.5q4 -6 20.5 -22.5t21.5 -19.5v-5v-3q-7 -11 -7 -14v-3q0 -18 9 -48t11 -39q14 -84 14 -163v-58 q0 -2 -2.5 -14.5t-2.5 -13.5q-2 -2 -2 -17q0 -11 1 -27.5t1 -17.5q-2 -4 -8.5 -19t-6.5 -16q0 -4 -3.5 -32t-3.5 -30q0 -7 -7 -16q-1 -3 -14 -21t-14 -20q0 -1 -7 -20t-9 -22q-19 -49 -53 -97l-7 -5q-6 -6 -9 -7q-22 -18 -81.5 -76.5t-96.5 -84.5q-14 -1 -24 -5t-23 -11 t-22 -11q-14 -7 -23 -7q-65 -20 -159 -44q-7 0 -20 -6t-21 -6h-7q-1 0 -10.5 3t-10.5 3q-28 6 -99 6z" />
<glyph unicode="P" horiz-adv-x="1189" d="M537 659q14 -1 49.5 -6.5t53.5 -5.5h10q4 5 24.5 25l23.5 23q1 0 7.5 4l15 9.5t12.5 7.5q33 14 50 28q70 70 81 90q51 64 51 211q0 10 -4.5 19.5t-12.5 21t-11 19.5q-1 1 -10.5 20t-12.5 20q0 4 -19 23q-1 4 -10 21.5t-12 19.5l-40 28q-11 7 -15 7q-1 1 -5.5 8t-9 13 t-4.5 7l-7 6q-48 14 -51 14q-1 0 -19.5 3.5t-21.5 3.5q-2 1 -12.5 4.5t-22.5 7t-14 4.5h-8h-12q-10 -18 -44 -57l-19 -35v-124q-17 -33 -17 -85q0 -24 2 -35q-5 -5 -12 -19v-7v-8q0 -13 2 -40l3.5 -48.5t1.5 -22.5q0 -12 14 -40v-29v-28q0 -1 -1.5 -3.5l-4 -6.5t-3.5 -6 l-6 -9q-6 -9 -6 -10v-3v-4l7 -8l10 4l10 4q14 0 14 -12q0 -3 -0.5 -7t-0.5 -6q0 -9 6 -11zM108 78q-2 9 25 30.5t38 22.5q25 7 69 7q4 4 28 21q1 2 7.5 8t7.5 8q0 50 7 76q0 1 6 26.5t6 28.5v4q0 10 -6 30t-6 32q0 14 6 42t6 44v9q0 6 -3.5 71.5t-3.5 73.5v13q0 12 15 35.5 t15 38.5q0 6 -4.5 19t-4.5 19q0 9 7 24t7 24q0 13 -6 51t-6 55q-2 12 -2 78q0 67 2 79q-16 23 -16 54v3q0 1 7.5 17t8.5 18v36q0 65 -35 89q-41 3 -78 13q-1 1 -9 5t-10 4l-12 -1q-12 -1 -19 -1q-10 0 -12 2q-15 3 -28.5 21t-13.5 33q0 24 20.5 42t42.5 20q4 1 24.5 2.5 l46.5 3.5t33 3h17h17q40 -9 78 -9h230q1 0 12 -3.5t14 -3.5h4q11 0 32 4.5t37 4.5q6 0 22.5 -1t17.5 -1l12 -3q12 -4 15 -4q6 -1 25 -2.5t33 -3.5t24 -6q72 -28 133 -78q41 -31 87 -112.5t53 -136.5v-31v-12q0 -1 3.5 -13t3.5 -13v-4v-5q-16 -89 -40.5 -153.5t-72.5 -116.5 q0 -1 -9 -7.5t-11 -6.5q-14 -11 -56 -70q-14 -14 -14 -20q-19 -1 -26 -1.5t-17 -3.5t-19 -10q-26 -13 -66 -24t-67 -11q-20 0 -52 10.5t-43 12.5h-30q-12 1 -34 11t-37 10h-8q-21 0 -33 -9q0 -4 -6 -26l-6 -21q-1 -2 -4.5 -10.5t-6.5 -16.5l-3 -7l-2 -7q0 -7 2 -9 q0 -1 7 -13t7 -13q7 -35 7 -43l5 -14l3 -5q0 -10 -7 -31.5t-8 -25.5q-14 -28 -14 -42q0 -8 14 -71l4 -27.5t5 -32t10.5 -26.5t21.5 -24q3 -3 14.5 -8t13.5 -5h90q9 0 36.5 -24t27.5 -27v-6q-17 -29 -29.5 -39.5t-39.5 -15.5q-4 0 -30.5 1t-44.5 1t-44 -1t-28 -1 q-21 0 -35 -7h-237q-13 9 -24 9q-3 0 -10 -1t-13 -1h-8q-56 10 -63 78z" />
<glyph unicode="Q" horiz-adv-x="1519" d="M397 396q3 -4 55 -69q1 -2 4.5 -7.5l6.5 -10t3 -5.5q19 -56 28 -69q19 -19 21 -20q6 -8 11 -17.5t14 -17.5q41 -28 44 -29q2 -1 17 -10t17 -10t15 -13.5t15 -13.5q3 -2 18.5 -8t21.5 -6q3 -1 30.5 -3.5t64 -5.5t50.5 -5h8q14 0 31 13t23 15q17 7 35 7q7 2 15 8.5t16.5 15 t11.5 10.5q6 7 23.5 26l25.5 28l22.5 26.5t22.5 30.5t17 30t14 34l3 12q3 13 5 14q4 10 19.5 38t20.5 47q9 29 16 85.5t13 80.5q0 1 6 19.5t6 21.5v35q0 3 3.5 28.5t3.5 26.5t1 7t1 9q0 21 -7 61t-14 62q-20 58 -29 97q-5 18 -5 29l-50 97q0 1 -3.5 6l-6.5 9.5t-4 5.5 l-14 13.5t-14 15.5q-3 3 -17 29.5t-24 32.5q-4 0 -15.5 2.5t-12.5 4.5q-1 0 -10.5 6t-10.5 6q-56 33 -118 35q-1 9 -19 9h-5h-19q-1 -1 -9 -5t-10 -4q-13 -1 -45 -1.5t-52.5 -3t-42.5 -7.5q-5 -7 -35 -7q-9 -5 -21 -23.5t-13 -19.5l-35 -42q-8 -10 -24.5 -43.5t-32.5 -46.5 q-1 -1 -13 -10t-13 -11q-2 -1 -10 -14t-11 -20q-7 -11 -15 -35t-14 -34q-4 -11 -15 -34.5t-17 -42t-8 -36.5q-19 -127 -22 -143v-6v-3q0 -2 3.5 -13.5t3.5 -12.5v-12v-31q1 -4 10 -32t10 -32v-35q2 -2 15 -26.5t15 -26.5q0 -2 1 -11.5t1 -16.5t-1 -17t-1 -11zM104 583v221 q7 24 7 37q1 3 3.5 29.5t2.5 30.5q13 26 15 28q10 33 19 57q8 9 41.5 56t36.5 55l13.5 27.5t15.5 27.5q4 7 6 7q8 11 34 28l14 13.5t16 13.5l19 14q18 24 20 28q39 13 42 16q9 3 25 16.5t25 17.5q17 8 42 12q1 2 12 5.5t23 6.5t13 4q9 3 22 10t27 9q14 7 55 7q20 13 29 15 l19 7h140q32 9 42 9q21 0 54.5 -20t42.5 -23q36 -16 118 -49q1 -1 4 -2.5t6 -3.5l3 -2q11 -4 42 -42q7 -6 21.5 -13.5t23 -14.5t12.5 -19q0 -24 5 -27q8 -12 30 -23q7 -8 52 -53l51 -51q1 -21 13.5 -54.5t14.5 -42.5q1 -3 6 -28.5t6 -28.5q2 -2 12 -24l11 -22q0 -3 3.5 -18 t3.5 -17v-92v-90q-6 -92 -35 -188q0 -1 -7 -9.5t-7 -9.5q-10 -20 -15 -62q-7 -16 -41.5 -69t-47.5 -70q-1 -3 -14 -16l-28 -27.5t-20 -20.5q-1 -1 -5.5 -4t-10 -6t-6.5 -4l-13 -13l-23 -22.5l-13 -12.5q-7 -6 -28 -17t-34.5 -23.5t-13.5 -28.5v-9q7 -31 7 -35q1 0 12.5 -8.5 t15.5 -10.5q5 -4 34.5 -18t34.5 -16q41 -27 43 -28q1 -2 15 -4.5t20 -2.5q4 -7 19 -15q2 -1 30.5 -9.5t31.5 -9.5q2 -1 14.5 -8.5t14.5 -7.5q3 0 27.5 -3.5t28.5 -3.5q14 -2 40 -13.5t36 -14.5q1 0 23.5 -3t26.5 -3q2 -2 16.5 -7.5t18.5 -6.5q7 -2 45.5 -11t42.5 -10 q5 -1 56 -7t56 -7q1 0 10 -4l9 -3h23q47 -19 62 -19q4 -2 24 -2q14 0 37 1l24 1q33 -10 40 -22q6 0 18 0.5t18 0.5q32 0 74 -8q1 0 12.5 -3.5t20 -6.5t9.5 -4q38 -7 116 -7h38q1 0 10.5 3.5t10.5 3.5h1h6l13 -3q13 -4 14 -4h49q14 -7 14 -24q0 -25 -28 -38l-31 -13 l-36.5 -15.5t-17.5 -6.5q-7 -2 -51 -8t-53 -6q-1 -1 -34 -8h-26q-19 0 -55 4t-54 4q-13 0 -34.5 -7.5t-33.5 -7.5q-10 0 -30 4t-29 4q-6 0 -15.5 -7t-16.5 -7h-4q-33 13 -35 13h-22h-54q-14 0 -29 4t-33 10t-28 8q-2 0 -23 2.5t-27 2.5q-157 24 -242 50q-5 1 -76 28 q-4 0 -19 3t-16 4q-30 7 -140 48q-15 6 -41 22.5t-35 21.5q-16 0 -21 5q-35 21 -41 21q-17 3 -49 14q-12 3 -20.5 20t-15.5 21q-13 8 -44 17t-44 18q-3 2 -18 13.5t-25 13.5q-1 0 -13 4l-13 3q-24 11 -69.5 39.5t-71.5 38.5q-12 0 -29 7q-8 4 -28.5 17.5t-31.5 17.5 q-8 3 -21 4.5t-23 7.5q-110 78 -124 84l-18 18.5l-32.5 33t-19.5 18.5l-13 7l-6 7q-11 17 -30.5 50.5l-26.5 45.5q-1 2 -14 19l-13 16q-1 1 -6.5 13.5t-7.5 14.5q-1 2 -2.5 9t-3 12.5t-3.5 5.5q-2 9 -16.5 37.5t-17.5 38.5q-2 11 -3.5 48.5t-9.5 57.5z" />
<glyph unicode="R" horiz-adv-x="1362" d="M533 702q13 -1 80.5 -4.5t76.5 -3.5h9h7q24 3 35 8q32 12 57 33t37.5 38.5t33 50.5t33.5 51q1 2 4.5 7.5t5.5 9.5t2 6q1 2 4 25.5t3 27.5q0 1 3.5 14t4.5 14v17q0 61 -15 87q-9 16 -23 48.5t-24 48.5q-7 6 -23 29q-1 3 -12.5 20t-14.5 20q0 7 -7 7q-11 7 -35 7t-34 9 q-4 3 -13.5 8.5t-13.5 7.5l-11.5 6t-12.5 5.5t-13 3.5t-16 2.5t-17 0.5h-14q-6 0 -38.5 -3.5t-39.5 -3.5q-29 -29 -35 -34q0 -9 -5 -21q0 -2 -3.5 -14.5t-3.5 -15.5q-1 -2 -5 -20.5t-10 -25.5v-45v-47q1 -12 4.5 -85.5t3.5 -87.5q0 -10 -3.5 -66t-4.5 -65v-18q0 -16 13 -32 t30 -20zM1158 9q-14 0 -42 -4.5t-41 -4.5q-10 0 -44.5 20.5t-39.5 29.5q-10 14 -23 42t-20 39q-1 3 -10 15t-9 13q-4 6 -15 29t-12 28q-5 2 -16 21q-72 105 -97 145q0 4 -7 14q-7 19 -62 118q0 8 -14 29q-1 0 -28 19q-29 23 -41 28q-19 19 -21 22l-19.5 10l-21.5 11 q-2 0 -14.5 3t-13.5 4q-2 0 -14.5 6t-15.5 6h-1q-11 0 -32.5 -34t-21.5 -45q0 -13 4.5 -35t4.5 -35q0 -12 -4.5 -33t-4.5 -31q0 -14 7.5 -39t8.5 -30v-64v-62q0 -2 -3.5 -14.5t-3.5 -13.5v-7q0 -32 18.5 -55.5t45.5 -37t53.5 -24.5t45 -24t18.5 -30q0 -21 -26.5 -33 t-50.5 -12q-86 0 -111 5l-237 2q-11 -7 -43 -7h-26h-49q-7 2 -17.5 9.5t-10.5 14.5q0 13 18 29t29 16h113q4 0 12 12t8 16v19v50q9 41 9 78q0 1 -1 19t-1 29q0 18 2 21v2q4 35 5 213q16 24 16 65q0 5 -1 18l-1 14q0 2 -3.5 8t-3.5 7v2q0 18 4.5 54t4.5 53q0 14 -4.5 29.5 t-4.5 24.5v3q0 2 3.5 13.5t3.5 12.5q1 4 3 17.5t3.5 25t2.5 14.5v61v24q0 5 4 34t9.5 62.5t5.5 35.5v53q0 3 3.5 22.5t3.5 20.5v7v7q0 7 -14 21q-4 5 -15 15.5t-13 10.5q-1 1 -8.5 2.5t-15.5 3.5t-10 3q-8 1 -43.5 10t-38.5 9q-22 6 -39.5 21.5t-17.5 35.5q0 14 17.5 24 t32.5 10q26 0 42 -7q128 -8 142 -8q21 0 128 8q12 7 29 7q8 0 21 -7.5t22 -7.5q34 0 97.5 11t96.5 11h38q9 -8 34 -10t29 -4q3 -1 11.5 -9t10.5 -11l111 -35q1 0 10 -9l20 -21t16 -18q1 -1 8 -10.5t8 -10.5q9 -12 33 -27t29 -22q11 -21 24 -60.5t18 -51.5q0 -1 6 -13.5 t6 -14.5v-1v-6q0 -1 -6 -16t-6 -18v-21v-55q0 -3 -7 -14.5t-9 -13.5q0 -32 -7 -35q-14 -62 -66.5 -126t-111.5 -90q-24 0 -29 -7q-19 -11 -47 -69q3 -5 7 -5q78 -66 124 -133q0 -7 7 -21q0 -7 7 -14q6 -11 15.5 -30l12.5 -25q7 -13 13.5 -23.5t11 -16l13.5 -17t16 -19.5 q6 -8 29 -41t40 -52t36 -32q16 -12 56 -26.5t61.5 -34.5t21.5 -58v-16q0 -16 -6 -19q-5 0 -29 -7q-41 0 -78 -7h-2q-7 0 -24.5 11.5t-33.5 11.5z" />
<glyph unicode="S" horiz-adv-x="1074" d="M106 149q-7 17 -7 45q0 34 16 90t18 65l4.5 23t5.5 25.5t8.5 18.5t16.5 18q32 7 55 7q4 0 11.5 -5t9.5 -9q10 -17 48 -112l7 -12v-42q3 -15 10.5 -25t21 -20.5t19.5 -16.5q5 -6 12.5 -20t13 -21t17 -14t26.5 -7q16 -3 150 -16h9q13 0 27 4.5t31 12.5t25 11q1 1 13.5 4 t14.5 3l9 8q10 9 13 12q9 16 28 35q0 31 7 35q0 2 6 15t6 14q7 17 7 40q0 3 -3.5 15.5t-3.5 13.5q-7 42 -7 90q-2 12 -49 63q-25 34 -60 48q-14 7 -23 7q-24 24 -34 28q-12 6 -16 6q-1 1 -23 10.5t-23 10.5l-14 7l-28 28q-1 1 -8 5.5l-15.5 9.5t-11.5 7q-40 23 -112.5 80 t-110.5 79l-31.5 49.5l-30.5 47.5q-16 24 -21 42v52q0 94 14 149q16 56 76 124t111 87q31 0 43 5q4 0 31 7t31 7l14 1h32.5h24.5q6 0 38 -0.5t37 -0.5q11 -5 37.5 -8.5t38.5 -10.5q2 -4 14 -16q45 -57 102 -57q22 0 36.5 6.5t20 15t16 15t24.5 6.5q10 0 14 -2t10 -12 q3 -4 14.5 -28t13.5 -27v-5v-9q-1 -2 -5 -17t-4 -17v-83q-10 -15 -17.5 -40t-10.5 -31q0 -2 -5.5 -13.5t-6.5 -12.5q-1 -4 -5 -13.5l-5 -12t-4.5 -9t-6.5 -8t-8.5 -4.5t-12.5 -3.5t-17 -0.5q-32 0 -51.5 19.5t-25.5 44t-15.5 56t-21.5 47.5q-20 24 -50 57q-58 62 -83 62h-90 q-9 7 -24 7h-11q-55 -35 -112 -97v-14q0 -12 -3.5 -30t-3.5 -30v-11q0 -1 3.5 -13t3.5 -13q1 -8 1.5 -28.5t1.5 -28t5.5 -21t12.5 -27.5q12 -9 15 -14q20 -20 76 -69l5 -5q4 -4 8.5 -9t9 -9t5.5 -5q12 -5 69 -35l32.5 -16.5t42.5 -18.5t36 -6l61.5 -40t81.5 -55t58 -45 q8 -3 15 -14l19 -40q7 -10 22.5 -30t25 -35.5t14.5 -32.5q2 -2 5 -25t4 -24q0 -1 3.5 -10t3.5 -11v-14q0 -12 -7 -29t-9 -28l1 -20q1 -20 1 -33q0 -19 -2 -23q0 -2 -9 -17t-10 -17q-2 -3 -24 -48t-26 -49q-1 -4 -53 -56q-72 -65 -140 -83q-119 -26 -132 -27h-7 q-148 0 -223 20q-14 4 -35.5 20.5t-33.5 21.5q-7 3 -32 11.5t-46.5 17t-25.5 12.5z" />
<glyph unicode="T" horiz-adv-x="1552" d="M934 0h-212q-2 1 -20 7.5t-22 8.5h-5h-4q-44 -16 -110 -16q-21 0 -41 3t-42 10t-35.5 22.5t-13.5 37.5q0 18 12.5 33.5t29.5 18.5q7 0 51 3t52 3q21 3 37.5 18.5t23.5 29t17 37.5q-3 33 -3 73q0 34 3 73q0 6 6 56t6 56v3v2q0 2 -3 12t-3 11v7q0 5 3 17t3 21t-3 25t-3 25 v15q2 10 7.5 72.5t5.5 74.5v21v61q1 14 8.5 43t7.5 45q0 11 -4.5 27.5t-4.5 27.5q0 21 9 30v161l-1 4q-2 4 -3.5 9t-2.5 7l-5.5 16.5t-9.5 21t-13 11.5q-48 21 -50 21h-59q-42 0 -120 -3.5t-118 -3.5h-42q-45 -24 -76 -63q-1 0 -2.5 -2.5t-3.5 -5.5t-3 -4q-13 -38 -27 -57 q-3 -4 -17 -21.5t-21 -24.5t-19.5 -18.5t-25.5 -16t-28 -4.5q-35 0 -35 30v5q0 9 3.5 41.5t3.5 36.5q5 35 5 48q4 2 23 21q2 4 14 37t14 39v35q0 7 3.5 11t9.5 8.5t9 8.5l15.5 24t17.5 25t19.5 15t30.5 8q25 0 63 -26.5t48 -30.5q5 -2 36 -2q16 0 40 4.5t36 4.5q27 0 80 -8 t81 -8q12 0 35 4.5t34 4.5h4l59 -3t70.5 -4t31.5 -2t19.5 -3t20.5 -3h6q35 0 103.5 3t102.5 3q13 0 39.5 -3t40.5 -3h22q75 0 109 15q9 0 16 7q4 2 27.5 20.5t26.5 21.5l18 2q18 3 25 3h12q7 0 13 -4.5t9 -9t7.5 -13.5l6.5 -13q10 -20 16 -23q0 -38 5 -46q18 -41 29 -57 q0 -15 6 -21q4 -12 29 -68.5t28 -64.5q0 -38 7 -54v-9q0 -25 -21.5 -40t-48.5 -15q-3 0 -12 1t-10 1q-49 44 -62 69l-16 31.5t-17 32.5l-16.5 28.5t-19.5 28t-22 21.5t-27.5 19.5t-31.5 12t-39 6.5h-35h-88q-23 9 -27 9h-58h-55q-6 -5 -34 -16q-7 -5 -7 -7q-7 -32 -7 -55v-4 v-3q0 -4 3.5 -35t3.5 -34v-14q0 -20 -3.5 -61t-3.5 -62q0 -19 3.5 -58.5t3.5 -60.5q0 -7 -8 -20t-8 -19q0 -12 4.5 -35.5t4.5 -34.5v-32l-3 -13q-4 -13 -4 -14v-11v-24q-1 -1 -4 -19.5t-5 -21.5q-19 -215 -19 -338v-19q0 -26 7 -48q6 -21 30 -48t43 -27q10 0 29 4.5t29 4.5 q47 0 87 -16.5t40 -56.5q0 -22 -17 -44t-40 -25q-41 0 -90 7q-2 0 -14.5 3.5t-15.5 3.5z" />
<glyph unicode="U" horiz-adv-x="1585" d="M229 514v15q0 22 2.5 75.5t2.5 56.5v24q0 8 -2.5 24t-2.5 25q0 10 2.5 29.5t2.5 30.5v5q0 2 -2.5 15t-2.5 15l-1 9q0 9 -1 20t-1 16q0 18 4 44t4 42q0 10 -2.5 32.5t-2.5 35.5q0 15 2.5 45t2.5 50q0 71 -5 116q-13 16 -44 27.5t-53 22t-22 26.5v7q0 5 3.5 19t3.5 15 q0 3 4.5 5.5t10.5 5.5l5 3q57 16 153 16h77q11 0 32 3.5t31 3.5q8 0 58 -1t61 -1q36 -6 74 -29q7 -7 7 -21v-9q0 -6 -1 -10.5t-1.5 -7t-3.5 -5.5t-5 -4.5l-7 -5.5l-9 -7q-4 -1 -12.5 -5l-15 -7t-7.5 -3q-1 -1 -6.5 -2.5l-12.5 -3.5t-9 -3q-4 0 -21.5 -4t-19.5 -6 q-22 -9 -39.5 -41t-17.5 -58q0 -24 8 -67v-305q-8 -19 -8 -57v-28q5 -68 8.5 -102t14 -91t27.5 -99q0 -1 7 -10.5t7 -10.5q1 -1 7 -17t7 -17q4 -11 17 -31t17 -32q0 -3 3 -14t4 -12q6 -15 13.5 -22t24.5 -15.5t24 -12.5l7 -7q3 0 11.5 -3.5t11.5 -3.5q4 0 57 -6t59 -7l10 -3 q10 -4 12 -4q6 -3 19.5 -6.5t24.5 -5.5t12 -2q26 5 34 7q18 4 36 11.5t30 13.5t31 19t26 19l29 24l28 23q1 0 28 18.5t34 32.5q3 0 9 19q1 4 9 31.5t10 39.5q7 9 7 48q22 33 22 40q6 21 6 78l2 26q1 26 1 34q0 22 -4.5 65t-4.5 65v24q0 21 6 28q8 91 8 187q0 20 -1 24 q0 1 -6.5 23t-6.5 24q-3 21 -3 45q0 25 3 46q-20 46 -34 56q-45 26 -50 26q-2 1 -24 4t-25 4q-5 0 -12 7q-27 24 -43 28q-4 1 -14.5 3t-17 3.5t-12 8t-5.5 16.5q0 12 19 31t37 19q24 0 49.5 1t33.5 1h126q5 0 24.5 3t22.5 6h14q9 0 25 -4.5t25 -4.5q10 0 30.5 4.5t31.5 4.5 q88 0 140 -64q0 -10 7 -21v-5v-2q-7 -7 -7 -16q-53 -26 -71 -34q-11 -4 -32.5 -5t-37 -7t-27.5 -23q-9 -37 -13 -97v-69q0 -3 -3.5 -31t-3.5 -31q0 -1 3.5 -11t3.5 -12v-8v-11q0 -3 -3.5 -31t-3.5 -31q-2 -21 -2 -137q0 -114 2 -133q-9 -26 -14 -50l-14 -189 q-9 -12 -17.5 -44.5t-10.5 -36.5q0 -2 -7 -16q-6 -11 -21.5 -41.5t-28.5 -51.5t-27 -38q-1 -2 -12.5 -14t-13.5 -15q-2 -1 -14.5 -10t-13.5 -9l-17.5 -18t-17.5 -17t-21.5 -4.5t-21.5 -4.5q-9 -2 -25 -12.5t-23 -13.5q-1 0 -25 -6.5l-31 -8.5q-43 -6 -57 -12 q-8 -4 -15.5 -9.5t-11 -7.5t-11 -4t-17.5 -2h-26q-3 0 -28 3.5t-29 3.5h-75q-1 0 -14 3.5t-15 3.5h-17h-45l-10 7q-10 7 -11 9q-109 51 -150 79q-28 19 -58 45l-29 19q-15 14 -29.5 54t-17.5 45q-3 3 -14.5 24t-12.5 24q-10 17 -14.5 39.5t-6 53.5t-2.5 40q0 3 -6 38t-6 37z " />
<glyph unicode="V" horiz-adv-x="1297" d="M607 -14q-3 7 -12.5 39.5t-10.5 36.5q-5 12 -5 23q-9 14 -29 62q-1 1 -3.5 13.5t-2.5 14.5q-5 2 -22 27q-7 14 -7 35q0 3 -14 35t-26 68.5t-28 90.5t-22 71q-14 51 -42 110q0 1 -9.5 20.5t-10.5 23.5q-7 5 -7 46q-3 32 -14 51q-1 1 -11 12.5t-10 12.5q-7 24 -7 56 q-5 25 -15 41q-6 18 -38.5 102l-36.5 94q0 17 -7 34q-3 13 -22 44v19q0 3 -1.5 9.5t-2.5 12.5l-1 5q-3 1 -22 25t-28 38q-6 10 -28 15q-21 0 -35 7q-2 0 -13.5 3.5t-12.5 3.5q-23 0 -43 5q-6 4 -22.5 20.5t-18.5 21.5v8q0 58 109 58h20q37 0 59 -9h151q28 14 69 14h38h19 q1 0 17 3.5t18 3.5h13q20 0 38.5 -9t18.5 -26q0 -31 -16 -45t-38.5 -16.5t-45 -4t-38.5 -14t-16 -41.5q0 -18 9 -43.5t11 -36.5q2 -4 4.5 -26t3.5 -24q1 -3 17 -37.5t18 -38.5q0 -1 3.5 -16t3.5 -18v-49q1 -12 16 -33.5t18 -30.5q7 -7 7 -19q1 -2 4 -17.5t3 -17.5 q5 -12 27 -59t28 -74q1 -2 4 -20t3 -21q1 -1 10 -19t11 -23q3 -1 12 -13t11 -15q0 -9 12 -57l3 -16q4 -15 4 -18l19.5 -39t23.5 -43q1 -4 10 -13l9 -9q12 -2 16 -2l13 2q16 12 28 29q22 34 32.5 97t14.5 76q12 27 15 44q2 4 14.5 26t13.5 27q2 5 4 46t3 44q0 6 22 50 q0 5 6 32t7 29q5 21 17 63t17 63q0 2 3.5 27t3.5 29q13 31 16 34v23v27q-2 6 -3.5 20.5t-3 27t-2.5 13.5q-11 46 -42 71q-12 9 -32 12t-34.5 3.5t-25.5 10.5t-11 33q0 19 16 35.5t36 16.5q6 0 18 -3.5t18 -3.5h9q121 0 257 7q14 7 19 7h78q1 0 13.5 2.5t14.5 2.5q5 3 7 3 q9 0 22 -8l15 -15.5l17.5 -18t7.5 -8.5v-7q0 -2 -15.5 -18l-24.5 -25q-20 -16 -73 -33t-74 -36q-16 -12 -26.5 -26.5t-14.5 -22t-16 -33.5q-1 -4 -17.5 -35.5t-16.5 -33.5v-36v-14q-4 -10 -7 -14q-6 -9 -12 -21q-4 -28 -11 -57t-12 -45t-18 -53.5t-17 -51.5l-3 -16 q-2 -15 -2 -19q-1 -3 -3 -14t-3.5 -23t-1.5 -13q0 -3 -5.5 -16.5l-12 -30t-8.5 -22.5q-3 -4 -16 -29l-14 -27v-7v-13q-1 -2 -13.5 -17.5t-13.5 -17.5q-12 -23 -18 -80t-10 -72q-7 -17 -7 -23q-23 -46 -69 -159q-3 -7 -10.5 -19.5t-12 -23.5t-5.5 -21q-1 -3 -3.5 -37 t-3.5 -37t-14 -21.5t-14 -20.5q-5 -10 -8.5 -36t-13.5 -40.5t-35 -14.5q-23 0 -46 34z" />
<glyph unicode="W" horiz-adv-x="1874" d="M143 1202l-61 63q-6 5 -38 11.5t-47 29.5v4q0 20 21 24q35 6 97.5 12.5t82.5 9.5q1 0 11 3t12 3h5h7q3 0 21.5 -3t19.5 -3q27 -3 56 -3q30 0 57 3q19 -6 31 -25t12 -40l-2 -19q-2 -3 -18 -18.5t-16 -16.5q-7 -10 -7 -36v-14v-26q0 -2 6 -14.5t6 -13.5q7 -12 7 -34 q5 -18 21 -60.5t22 -66.5q2 -8 7 -41.5t12 -48.5q2 -1 11.5 -13t10.5 -14q18 -31 21 -42q0 -13 14 -48l10 -17q10 -16 11 -20q4 -9 8 -27.5t6 -25.5q4 -14 17.5 -34t16.5 -29q7 -10 7 -22l15 -31.5t13 -30.5q7 -21 7 -49q3 -7 16.5 -28t19.5 -27q19 -14 45 -14q9 0 17.5 6 t15.5 20t10.5 22t9.5 25.5t6 18.5q3 7 22.5 60t24.5 63q3 8 14 24.5t15 25.5q5 7 5 27q7 10 7 54q13 32 16 35q15 43 15 98v21q0 35 -8 57q-6 6 -23 40q0 52 -7 64q0 5 -19 62q-1 1 -4 7l-4 5q-4 7 -24.5 40t-22.5 38q-11 16 -57 24.5t-85.5 17.5t-39.5 27q5 12 9 14 q13 17 29.5 28t38 17t36.5 8.5t42.5 5l38.5 3.5q3 0 18.5 3.5t16.5 3.5h19h10q17 0 28 -7h64q125 0 205 -6q16 -6 16 -47v-9q-8 -15 -21 -20.5t-34.5 -5.5t-29.5 -2l-3 -2q-3 -1 -6 -2.5t-5 -1.5q-4 -3 -11.5 -11l-14.5 -15.5t-8 -8.5q-9 -10 -9 -40q0 -14 4 -17 q2 -11 19.5 -65l19.5 -60q3 -4 12 -21t9 -20q6 -15 8.5 -29.5t3.5 -38t2 -29.5q3 -18 23.5 -42.5t24.5 -40.5q1 -3 4.5 -34.5t4.5 -34.5q0 -16 7 -28q5 -26 28 -78q0 -9 7 -12q2 -5 10.5 -23.5l16.5 -35t18 -34.5t19.5 -29t16.5 -11q10 0 22 7l35 22q5 5 5 28q22 57 57 185 q4 13 18 47t17 52q7 28 7 77q0 2 2.5 16.5t2.5 18.5q4 13 22 36t21 38v35v16l7 16q7 16 7 18q9 30 9 57q0 33 -16.5 51t-37.5 23t-49.5 13.5t-43.5 21.5q-16 12 -35 35v7q0 48 97 48q5 0 68.5 3.5t76.5 5.5q14 0 21 5q3 0 18 7t17 7q3 0 21.5 -7t19.5 -7q24 -6 72.5 -6.5 t74.5 -7.5q2 0 13.5 -5t14.5 -9q3 -2 13 -7t17.5 -10.5t10.5 -9.5v-24q0 -26 -9.5 -39.5t-21.5 -16t-35 -5.5t-37 -7q-2 0 -22 -9t-22 -10q-1 -1 -9 -4t-10 -3q-16 -9 -27 -28t-20.5 -47t-14.5 -37q-1 -1 -4.5 -5.5t-6.5 -9.5l-4 -4q-10 -20 -29.5 -80.5t-40.5 -87.5 q-9 -115 -34 -180q-7 -17 -27.5 -52t-26.5 -59q-2 -2 -2 -15q0 -8 1 -22l1 -13q-6 -20 -32 -64t-32 -61q-8 -19 -9 -19q0 -47 -5 -64q0 -1 -4 -7l-3 -6q0 -1 -3.5 -10t-3.5 -11q-10 -49 -15 -56q0 -1 -5.5 -13.5t-6.5 -13.5l-23 -49q0 -3 -2.5 -31t-2.5 -31 q-23 -147 -81 -147h-12q-18 0 -26 7q-34 34 -35 36q-1 1 -7.5 16l-15.5 37l-12 29q-9 26 -14.5 70t-10.5 63q-18 50 -44 109q-8 21 -35.5 116.5t-55.5 141.5q-7 15 -19 15q-15 0 -21 -15q-2 -2 -14.5 -25.5t-15.5 -28.5q-2 -8 -10.5 -28t-8.5 -22q-7 -28 -7 -42l-16 -19 q-17 -19 -20 -21q-7 -12 -11 -24.5t-8 -28t-7 -24.5q-5 -13 -16 -50t-18 -54q0 -1 -10 -23t-11 -26q-11 -27 -24 -80.5t-30 -91.5t-50 -65q-1 0 -13 -6.5t-16 -7.5h-4h-2q-3 0 -8.5 3.5t-6.5 3.5l-13.5 13l-19.5 19t-9 10q0 2 -5 15l-10 26t-5 14l-70 161q-8 20 -18.5 58 t-15.5 51q-16 41 -45.5 127.5t-46.5 130.5q0 3 -8.5 21.5t-10.5 21.5q-15 37 -16 42q0 3 -5.5 27t-6.5 26q-1 3 -17 28.5t-17 28.5q-7 7 -7 14q-1 3 -4.5 25t-4.5 24q-8 30 -30 85.5t-30 80.5q-1 2 -3 12t-3.5 19.5t-2.5 9.5q0 1 -1.5 4t-3 6.5t-2.5 5.5q-46 86 -55 131z " />
<glyph unicode="X" horiz-adv-x="1485" d="M934 16q-12 7 -28 27v2q0 20 35 45q6 5 18 8.5t18.5 8t6.5 16.5v8q-1 3 -4.5 8t-7 9.5t-4.5 5.5q-2 2 -11 20t-11 20q-14 37 -54 107q0 1 -7 8.5t-13.5 15.5t-6.5 11q-4 5 -26.5 49.5l-23.5 46.5q-2 4 -20.5 28t-21.5 26q-1 2 -4.5 6.5t-4 5.5t-3 4.5t-3.5 4t-3.5 2.5 t-4 2t-4 1t-5.5 1.5t-6.5 0.5h-8.5q-20 0 -32.5 -3t-19 -13.5t-8.5 -17t-4.5 -27t-4.5 -29.5q-1 -1 -2.5 -3.5l-3.5 -6t-3 -4.5q0 -1 -16 -16.5t-18 -18.5q-4 -4 -49 -74q-14 -23 -28.5 -67t-14.5 -66q0 -34 29.5 -50t65.5 -17.5t65.5 -14.5t29.5 -41q0 -38 -53 -38 q-9 0 -23 1t-20 1h-9q-12 -6 -42 -16h-12q-24 0 -36 7h-424q-10 0 -29 16l-12 12l7 62q0 4 9 10t11 6q17 4 55 12t59 13.5t51.5 14.5t56 21t48.5 27q0 2 3 5l4 3q69 76 69 77q3 1 12 17t11 17q8 11 30.5 36.5t31.5 39.5q12 24 12 28q10 14 38 50q11 10 12 12q7 7 17.5 20 t10.5 15q1 2 2.5 12t2.5 19.5t2 9.5q3 11 19 37.5t16 47.5v7q-7 42 -7 48q-26 32 -35 42l-4 4q-3 4 -6 7t-4 3q0 1 -7 3.5t-7 4.5q-2 1 -14 19t-13 21q-14 16 -28 35q-2 3 -16.5 17t-18.5 17q-10 15 -38 71.5t-45 76.5l-22.5 22l-39 38.5l-22.5 22.5q-1 0 -10 16.5t-11 17.5 q-19 29 -97 104q-17 15 -55 26t-56 36q-4 5 -12.5 23.5t-9.5 19.5q0 9 12.5 25t21.5 24h50h49q2 0 14.5 -3.5t13.5 -3.5h50q4 0 44 -3.5t46 -3.5q10 -2 15 -2l11 2q3 0 15 3l12 4h51h48q18 -2 48 -16.5t30 -28.5q0 -9 -4 -16t-13 -11t-15 -6t-18 -4t-14 -3q-4 0 -15 -1 t-17.5 -2t-15 -4t-12.5 -8.5t-4 -13.5l2 -12q0 -1 6.5 -14t6.5 -14q1 -1 3.5 -13.5t2.5 -14.5q7 -14 24.5 -27.5t25.5 -25.5q0 -2 7 -18.5t7 -19.5q27 -52 48 -75q2 -3 16.5 -17t18.5 -17q2 -3 14.5 -20l25 -34t17.5 -22q1 -3 6 -14t8 -16l8.5 -14.5t11 -14t13.5 -8.5t17 -4 q27 0 37 7t16 26.5t14 30.5q14 10 14 13q5 10 5 40q5 16 33 30t31 27v9v26q2 18 13.5 40t14.5 36q0 2 3.5 17.5t3.5 17.5q4 8 19 25.5t15 34.5q0 13 -13 20.5t-28 9.5h-49q-32 11 -48 22q-12 4 -27 16.5t-15 23.5q0 8 7 15q5 7 15.5 11t24 6t16.5 3q3 2 22 8l19 7h35h12 q2 0 12 3l10 4h11q19 0 40 -16h297q92 0 92 -45v-8q-12 -24 -34.5 -39t-41.5 -19.5t-52.5 -10t-48.5 -9.5q-5 -1 -37 -9.5t-37 -9.5l-16 -16q-1 -2 -32.5 -46.5t-36.5 -50.5q-12 -15 -43 -49.5t-45 -53.5q-3 -4 -12 -21.5t-10 -20.5q-14 -14 -16 -15q-2 -2 -8.5 -11l-12 -16 t-5.5 -8q-4 -4 -14 -35q-9 -13 -32 -26.5t-32 -26.5q0 -1 1 -5t1 -6q0 -5 -2 -5q-1 -4 -14 -28.5t-13 -26.5v-14q0 -15 8 -27.5t27 -29t22 -19.5q5 -7 8 -23t5 -20q2 -3 11 -20.5l10 -19.5q7 -13 29 -22t27 -13l34 -34q5 -5 20 -23l15 -19l5 -10.5t9.5 -18.5t7.5 -14 q0 -1 6 -17t6 -18q7 -14 31 -25.5t32 -22.5q2 -1 7.5 -13.5t5.5 -14.5q5 -3 19.5 -17t15.5 -17l7 -9q7 -10 9 -12q16 -28 31 -44.5t43 -38.5q4 -2 23 -21q10 -7 54.5 -27t74.5 -42.5t30 -46.5q0 -52 -89 -52h-36q-2 0 -24 3.5t-26 3.5h-35q-2 1 -27 8t-26 8h-63 q-139 0 -188 7z" />
<glyph unicode="Y" horiz-adv-x="1290" d="M272 45v5q41 80 85 81h76q20 2 48 17.5t35 33.5q7 12 7 53q-2 21 -2 137t2 137q0 4 3.5 47.5t3.5 48.5v51q0 27 -1 40.5t-7.5 31.5t-19.5 35q-3 5 -35.5 43.5t-47.5 53.5q-4 5 -10.5 11t-10 10.5t-6.5 12.5q-13 44 -16 51l-12 41q-26 26 -30 28q-44 70 -62 91l-34 35 q-2 2 -7.5 13.5t-5.5 14.5q-25 42 -77 88q-7 7 -20 17.5t-15 10.5q-13 5 -45.5 8t-49 13t-16.5 37q0 32 12 40q73 26 85 28h37q37 0 109 -11.5t107 -11.5q17 0 33 9l166 21q21 2 39 -17t18 -40q0 -13 -8.5 -20t-26 -13t-22.5 -9q-1 0 -7 -2.5t-7 -2.5q-4 -2 -32.5 -4 t-31.5 -3q-8 -4 -28 -28v-39q0 -11 1 -21t5 -22t5.5 -17.5t8.5 -19.5t8.5 -16.5t11 -19.5t10.5 -18q1 -2 2.5 -5.5t3 -6t1.5 -3.5q5 -5 5 -28q17 -14 44 -48q20 -26 26 -42q6 -2 8 -8q4 -1 21.5 -16t20.5 -19l48 -47h35q13 14 48.5 43t48.5 47l21 42q7 10 25 22t25 19 q0 1 3.5 7.5t3.5 8.5v26q2 14 12.5 23.5t21 14.5t19.5 19.5t9 37.5q0 39 -16 54.5t-50.5 24t-52.5 20.5l-28 22v55q5 6 7 7q23 17 57 25.5t53 9t63 0.5q14 0 36 -3.5t35 -3.5q27 0 81 11.5t81 11.5q35 0 54 -7t41 -32q4 -10 7 -12v-5q0 -40 -15 -57q-5 -7 -18.5 -20 t-16.5 -15q-1 -2 -19 -7.5t-22 -5.5q-67 -32 -82 -56q-2 -2 -8 -15t-7 -14q-5 -5 -7 -5q-1 -2 -11 -9l-10 -7q-31 -31 -41 -48q-5 -3 -19.5 -17t-15.5 -18q-1 -2 -7.5 -14t-6.5 -14q-1 0 -10 -9l-11 -11q-1 0 -22 -14q-1 -1 -6 -17.5t-6 -17.5q-6 -11 -25.5 -23.5 t-24.5 -17.5q0 -1 -2.5 -5.5t-6 -9.5t-3.5 -6l-15.5 -15.5l-26.5 -26l-16 -15.5q-8 -8 -15 -31t-12 -31q-7 -10 -30.5 -34.5t-30.5 -42.5q-2 -10 -2 -69q0 -66 2 -69q0 -1 3.5 -17t3.5 -18v-17q0 -19 -15 -79q0 -2 -7 -20.5t-7 -21.5v-3q0 -14 11 -41t11 -42q0 -7 -4 -19 t-4 -20q0 -18 13 -56t14 -40l63 -64q1 0 9.5 -3t12.5 -3q2 -2 22 -4.5t25 -2.5q4 -2 32 -10.5t32 -11.5q14 -6 14 -19q0 -9 -2 -9q-8 -37 -31 -49.5t-66 -12.5q-12 0 -36 4.5t-35 4.5l-24 -2q-1 0 -8 -3.5t-8 -3.5q-2 0 -31 -3.5t-38 -3.5h-16q-13 0 -40 3.5t-41 3.5 q-39 0 -116.5 -3.5t-115.5 -3.5h-45q-15 4 -32.5 21t-17.5 31z" />
<glyph unicode="Z" horiz-adv-x="1316" d="M611 2q-52 0 -159 -1t-162 -1h-154q-27 7 -33.5 17.5t-6.5 41.5q0 22 9 47t27.5 53.5t31.5 46.5t39 49l31 37q14 21 21 28q15 30 22 35l5 3q4 4 9 7.5t5 4.5q6 4 7.5 7t3.5 9t5 12l15 31l20.5 42.5l11.5 23.5q13 13 22 19q69 79 109 138q3 3 16 30q34 52 180 250 q5 4 15.5 20.5t11.5 19.5q7 14 7 23q1 0 4.5 6t4.5 6q1 4 14.5 21l30 36t17.5 21q53 66 66 99q10 25 10 48v10q0 14 -7 16q-13 1 -46.5 8t-49.5 7q-4 0 -10 -1h-6q-1 0 -9.5 -3.5t-9.5 -3.5h-45h-47q-1 0 -10 3.5t-10 3.5h-7h-7q-6 0 -49.5 -3.5t-47.5 -3.5h-9q-18 0 -56 4 t-56 4q-26 0 -51 -17t-39.5 -35t-32.5 -46q-5 -14 -7 -14q-1 -1 -7.5 -3.5t-13 -5.5t-7.5 -3q-2 -10 -19 -44q-6 -9 -45 -29.5t-50 -20.5q-15 0 -19.5 7.5t-4.5 22.5q0 57 21 124q1 3 8 20t12.5 32t5.5 19q2 2 5 28l3 26q0 2 5.5 15.5t8.5 18.5l9 22.5t12 26.5t13.5 21.5 t20 18t25.5 5.5l10 -2l35 -64q12 -3 13 -5q42 -18 68 -23.5t71 -5.5q27 0 79.5 7.5t79.5 7.5q60 0 119 -28h308q3 0 23 3.5t24 3.5h10q26 0 54 -20.5t28 -44.5v-4q-2 -6 -5.5 -20.5t-6.5 -25t-4 -11.5q0 -2 -26 -35l-10 -9q-10 -9 -12 -11l-54 -74t-59 -79 q-10 -14 -36.5 -42.5t-37.5 -47.5q-3 -3 -18 -35t-17 -34q-2 -3 -24 -25t-24 -25q-3 -1 -16 -19.5t-19 -28.5q-1 -1 -4 -7t-4 -7q-1 -3 -15.5 -17t-19.5 -18q-19 -25 -69 -104q-5 -7 -12 -29q-6 -7 -18.5 -20.5t-22 -25t-16.5 -23.5q-2 -2 -7 -16.5t-5 -18.5q-9 -7 -16 -21 q-1 -1 -12 -11t-20 -19t-10 -11q-2 -3 -24 -40.5t-26 -40.5q-1 -4 -15.5 -18.5t-18.5 -16.5q-1 -2 -40 -57q-23 -29 -49.5 -72t-26.5 -65v-1q1 -5 11.5 -15.5t15.5 -12.5h2h5q1 0 10 4l9 3h6h3q1 0 13 -3.5t13 -3.5h57q90 -5 107 -5q30 0 88 10t85 10q5 0 19 -1l14 -2 q2 0 20.5 -6t21.5 -6q1 0 16 6t18 6q8 2 64.5 11t74.5 24l35 34.5t34 34.5q9 11 26.5 46t36.5 58.5t41 23.5q15 0 35 -19.5t20 -36.5v-119q16 -23 16 -40v-1l-9 -31t-9.5 -31t-11 -23.5t-19.5 -21.5t-29 -13h-66q-27 0 -82 3.5t-82 3.5q-11 0 -34 -3.5t-35 -3.5 q-45 0 -134.5 8t-134.5 8z" />
<glyph unicode="[" horiz-adv-x="875" d="M860 1436q19 -4 19 -31v-14q0 -50 -12 -80q-1 -8 -15 -13.5t-21 -5.5q-59 -10 -130 -10h-52q-13 -9 -27 -9h-11q-15 0 -42 5.5t-41 5.5q-22 0 -26 -2q-13 0 -50 -4l-36 -5q-4 -1 -19 -16t-19 -22q-11 -21 -11 -86v-23q0 -114 11 -199q0 -5 8.5 -25t10.5 -23v-16 q0 -9 -0.5 -13.5t-5 -10t-13.5 -9.5v-67q0 -3 -5.5 -20t-5.5 -18t1 -27.5t1 -41.5q0 -25 -2 -28q0 -4 -8 -20t-11 -18v-5v-5q0 -1 5.5 -19t5.5 -20v-41v-16q0 -3 4 -20.5t4 -18.5v-9v-10q0 -2 -4 -19.5t-4 -18.5v-6v-3q0 -6 4 -44.5t4 -43.5q0 -1 2 -46t2 -60q0 -7 -2 -52 t-2 -53q0 -2 -4 -18.5t-4 -19.5q0 -2 -1 -19.5t-1 -29.5t1 -29t1 -19q-5 -5 -12 -14.5t-7 -13.5q0 -3 4 -16l4 -13q1 -4 4.5 -42.5t14.5 -56.5q11 -7 30 -36l9.5 -29t9.5 -28q5 -8 29 -23q9 0 62 -4.5t63 -4.5h15h16q3 0 37 4.5t37 4.5q2 2 19 2q11 0 30 -1l19 -1 q17 10 31 10h22h26q2 0 13.5 -4t12.5 -6q1 0 12.5 1t17.5 1q10 0 12 -2q57 -6 57 -100v-6q-24 -30 -60.5 -39t-88.5 -9q-58 0 -172.5 11.5t-171.5 11.5h-68l-8 -3q-9 -3 -18 -6.5t-12 -3.5q-48 0 -91.5 24t-43.5 68q0 34 5.5 104t5.5 105q0 33 -9 94.5t-10 87.5v28v69 q-1 4 -5 60.5t-6 64.5v3v7q2 23 6.5 139.5t4.5 119.5q8 11 8 30v3v5q-1 4 -8 15.5t-11 14.5v308q3 2 7 12.5t4 15.5q0 4 -5.5 38.5t-5.5 38.5v173q0 2 -4 20l-4 18q-2 4 -2 87q0 74 2 86q10 13 22 21.5t27 12t25.5 4.5t30 1t28.5 1q5 0 35 4.5t32 4.5h30h79q1 0 13 5l13 5 q72 9 147 9h18h50q1 1 12.5 5.5t13.5 4.5h12h7q26 -2 79 -10z" />
<glyph unicode="\" horiz-adv-x="587" d="M622 -464l-76 19q-5 24 -16.5 36.5t-18.5 31.5v29q-3 22 -23 40.5t-25 28.5q-14 14 -14 78v25q-19 13 -19 38l-19 36q-17 17 -17 33q0 4 4 11l3 8q0 18 -4 32t-8.5 21t-13 17.5t-11.5 14.5q-1 5 -8 60.5t-18 67.5q-1 0 -11 8t-20.5 18t-11.5 13l-7 40q0 3 -10.5 13 t-13.5 11q-11 11 -11 32l2 43q0 32 -10 52q-71 90 -78 107q-1 6 -2.5 22t-5.5 28t-13 24q-12 20 -18 39.5t-18 40.5v28l-40 116q-13 11 -19 31q0 36 2 46q-38 47 -50 109v33q0 21 -12 28q-6 9 -27 36t-38 51t-24 39q0 45 -5 57q-7 9 -18 22t-16 19.5t-9.5 19t-4.5 28.5v53 q-4 1 -11 15.5t-7 17.5v64q49 23 70 23q47 0 90 -51q6 0 24.5 -69.5t18.5 -85.5q7 -18 27.5 -55t27.5 -58l17.5 -55l19.5 -61t18.5 -53.5t22.5 -56.5q6 -16 30.5 -48t24.5 -61l2 -21q0 -1 10 -21q19 -18 35 -86.5t19 -76.5q4 -21 25.5 -58.5t26.5 -60.5q0 -14 7 -33 q27 -102 62 -161q5 5 32.5 -62.5l60.5 -152t47 -106.5q11 -31 11 -44q0 -22 3 -34l9 -8l17 -15.5t9 -9.5q5 -25 5 -56q3 -11 14.5 -25.5t13.5 -17.5v-19q4 -23 29.5 -73.5t25.5 -80.5q0 -8 -26.5 -43t-37.5 -35z" />
<glyph unicode="]" horiz-adv-x="921" d="M74 -471q-19 4 -19 32v13q0 51 12 80q1 8 15.5 13.5t21.5 5.5q51 10 129 10h52q14 9 28 9h10q15 0 42.5 -5t40.5 -5q23 0 26 1q14 0 50 5l37 4q4 2 19 17t19 21q10 19 10 87v22q0 122 -10 199q0 5 -8.5 25t-10.5 23v16q0 10 0.5 14t5 9.5t13.5 9.5v67q0 3 5 20t5 18 t-0.5 28t-0.5 42q0 24 1 27q0 4 8 19.5t11 18.5v6v5q0 1 -5 18.5t-5 19.5v41v16q0 3 -4.5 20.5t-4.5 19.5v8v11q0 1 4.5 18.5t4.5 19.5v5v3q0 6 -4.5 45t-4.5 44q0 1 -0.5 22t-1.5 46.5t-1 36.5q0 8 1.5 53t1.5 53q9 22 9 38q0 2 1 19t1 29t-1 29.5t-1 19.5q5 4 12 13.5 t7 13.5t-5 17l-4 13q-1 4 -4.5 42t-14.5 56q-3 3 -15 18.5t-14 18.5q-2 4 -10 29.5t-9 27.5q-5 7 -29 22q-10 0 -63 4.5t-62 4.5h-16h-15q-2 0 -37 -4.5t-38 -4.5q-1 -1 -19 -1q-8 0 -19.5 0.5t-19.5 0.5h-9q-17 -10 -31 -10h-23h-26q-1 0 -13 4t-13 6q-1 0 -12 -0.5 t-17 -0.5q-10 0 -12 1q-31 3 -44 33.5t-13 67.5v5q24 30 60 39t89 9q58 0 172.5 -11t171.5 -11h67q1 0 18 6t20 6q48 0 91.5 -24t43.5 -68q0 -34 -5 -103.5t-5 -105.5q0 -33 9 -94t10 -88v-27v-70q1 -5 4.5 -60.5t5.5 -63.5v-4v-7q-2 -22 -5.5 -134.5t-4.5 -124.5 q-9 -12 -9 -30v-3v-5q9 -18 19 -30v-308q-2 -2 -6 -12.5t-4 -14.5q0 -5 5 -39t5 -39v-173q0 -2 4.5 -19.5t4.5 -18.5q2 -4 2 -87q0 -74 -2 -86q-13 -17 -30.5 -25.5t-29 -10.5t-38 -2.5t-35.5 -1.5q-5 0 -35 -4.5t-33 -4.5h-29h-80l-13 -5q-12 -5 -13 -5q-67 -9 -147 -9h-17 h-50q-20 -10 -26 -10h-12h-7q-60 9 -80 10z" />
<glyph unicode="^" horiz-adv-x="964" d="M473 988h-5q-17 -9 -30.5 -29t-27.5 -50.5t-18 -38.5q-3 -2 -16 -18t-14 -20q-7 -12 -14.5 -43t-19.5 -47.5t-38 -16.5q-12 0 -24 8t-9 21q4 26 32.5 67.5t34.5 60.5q7 21 17.5 66t22 81.5t28.5 63.5q48 76 67 97q14 17 30 28q5 2 8 2q1 0 5 -1t6 -1q24 -6 33 -8.5 t20.5 -9.5t22.5 -20q4 -15 10 -19q24 -84 57 -242q1 -7 10 -35t9 -43v-9q0 -2 -4 -18.5t-4 -17.5v-7q0 -9 4 -28t4 -29q0 -44 -27 -64q-2 2 -14.5 11.5l-22.5 17t-12 9.5q-7 5 -10 21q-6 8 -19 46q-3 4 -11 21t-8 19q-8 18 -19 95q-17 56 -49 80h-5z" />
<glyph unicode="_" horiz-adv-x="966" d="M20 -206v45q0 113 64 119h67q5 1 43 10.5t63 9.5l73 -13q14 0 30.5 3.5t26.5 3.5q30 0 87.5 -12t85.5 -12l147 19l55 -9q4 0 35 11q25 9 40 9q70 0 103 -40q6 -3 6 -9l-6 -17q0 -31 -5 -50l4 -45l-6 -28q-37 -35 -128 -35q-20 0 -69.5 4.5t-71.5 4.5q-188 0 -376 -9 q-28 0 -84 -7.5t-82 -7.5q-29 0 -61 17t-41 38z" />
<glyph unicode="`" horiz-adv-x="1071" d="M233 1401q0 38 28 64t66 26q27 0 55 -17t43 -33.5t39 -46.5q2 -2 5 -6t5 -6q4 -4 19.5 -25.5t18.5 -31.5q8 -11 19 -38q3 -2 12 -11q2 -2 16.5 -12.5t24 -18.5t14.5 -17q3 -2 19 -26.5t19 -30.5q12 -8 42 -38q8 -13 14.5 -52t6.5 -57q-77 0 -101 22q0 2 -4 10l-3 9 q-2 2 -16 6.5t-15 4.5q-2 1 -23 22.5t-25 23.5q-1 2 -13 6t-13 5q-21 13 -62 51.5t-47 43.5q-2 2 -28.5 26.5l-49.5 46t-28 24.5q-38 42 -38 76z" />
<glyph unicode="a" horiz-adv-x="870" d="M261 254q0 -20 15.5 -33t32.5 -17t44 -8.5t35 -6.5h1q19 0 41.5 12t31.5 27q29 45 29 57v132l-6 14q-1 0 -8.5 0.5t-9.5 0.5q-36 0 -95 -43q-6 -4 -19 -14l-23.5 -18.5t-11.5 -8.5q-7 -5 -29 -42q-5 -5 -5 -14q-3 -2 -12.5 -13.5t-10.5 -15.5v-9zM474 106q-11 0 -21 -7 t-22 -20.5t-16 -16.5q-6 0 -15 -7q-15 -6 -43.5 -21.5t-52 -24.5t-46.5 -9h-31q-1 1 -10.5 4.5t-10.5 4.5q-28 0 -35 7q-3 0 -9.5 1.5t-12.5 2.5t-7 1q-24 16 -52.5 69.5t-28.5 84.5q0 18 9.5 49t10.5 39q35 51 63.5 82t70.5 56q1 3 34 16q10 5 40 28.5t42 25.5 q3 2 28.5 4.5t28.5 3.5l9 7q9 7 10 7l22 11q22 10 40 19t22 12q28 17 28 86q0 95 -57 164q-2 4 -10.5 11.5t-10.5 7.5h-60q-5 -4 -25 -17.5t-25 -23.5q-35 -63 -42 -97q-6 -6 -29.5 -21.5t-32.5 -19.5q-1 0 -9 -0.5t-18 -1t-15 -0.5q-2 0 -20.5 1t-22.5 1q-62 41 -62 79 q0 10 2 19t3.5 14.5t7.5 14t8 12t11 14t11 13.5q18 27 28 34q9 8 23.5 9t24.5 5l26 13l45 23t26 14q12 5 41 5q9 2 47.5 16t60.5 14h12q123 -20 173 -57q37 -33 40 -42q2 -2 4.5 -18.5t2.5 -21.5q0 -3 11 -31.5t11 -32.5q0 -43 5 -143v-5v-4q-5 -12 -5 -14q-7 -7 -7 -20 q-1 -6 -4 -50.5t-3 -53.5q0 -2 -1.5 -6.5t-4 -9t-2.5 -5.5q-7 -48 -7 -114v-52l15 -35q9 -22 38.5 -31t58.5 -9.5t52.5 -13t23.5 -41.5q0 -32 -53 -80t-87 -48h-19q-2 0 -12 4l-10 3q-3 1 -35 3.5t-35 3.5q-20 7 -67 56.5t-66 49.5z" />
<glyph unicode="b" horiz-adv-x="959" d="M304 458v-157q0 -29 12 -43l24 -29l37.5 -46l23.5 -29q29 -35 67 -35h23q1 0 10 3t10 3q12 6 63 6q36 18 41 28l9.5 19l16.5 32.5t10 17.5q2 3 13 26t14.5 31t8.5 25t6 31v81v80q-9 15 -12.5 27t-5 30.5t-4.5 30.5q-6 29 -31 77t-46 63l-10 4l-10 3q-1 0 -10 7l-9 7 q-13 5 -35 21h-99q-6 0 -13 -7q-2 -1 -14.5 -10.5t-15.5 -10.5q-5 -4 -20 -8t-20 -11q-1 -1 -13.5 -20.5t-15.5 -22.5q0 -7 -2.5 -49t-2.5 -50v-14q0 -11 2.5 -32t2.5 -34q0 -26 -5 -45zM157 28l-26 27q-2 0 -9 70v8q0 11 7 28t7 28q0 10 -5 27v139q-9 19 -9 50v26 q0 32 10.5 95.5t10.5 96.5v3q0 2 -3.5 11t-3.5 10t-0.5 8.5t-1 17t-0.5 14.5v12q0 36 16 52q0 11 1 74t1 75v122q0 167 -21 250q-5 17 -25 29t-41 17t-37.5 17.5t-16.5 32.5q0 10 5 17.5t9.5 10.5t17 8.5t15.5 7.5q5 1 43.5 13t41.5 13l29 13t29 12.5t26 7t35 3.5q7 0 7 -2 q24 -13 36.5 -45t12.5 -65q0 -2 -1 -12l-1 -9q0 -3 -3.5 -27.5t-3.5 -26.5v-133q0 -2 -2.5 -14.5t-2.5 -13.5v-55v-64q0 -62 5 -97q2 -5 8 -33.5t8 -35.5q2 -21 19 -21q12 0 30.5 10t26.5 11h27q13 2 35.5 8t41.5 10t36 4q19 0 54 -3t48 -4q6 -11 33.5 -23.5t35.5 -19.5 q6 -3 50 -41q2 -1 17 -17.5t18 -17.5q1 -1 13.5 -6t13.5 -6q2 -4 7.5 -26t5.5 -24l17.5 -44.5t17 -44t10.5 -40.5t5 -51q0 -314 -194 -440q-10 -1 -35 -20q-10 -5 -32.5 -9t-31.5 -10q-24 -6 -112 -16q-9 -1 -35.5 -7.5t-38.5 -6.5q-18 0 -48 16.5t-44 18.5q-16 7 -54 7 q-2 0 -21 0.5t-32 0.5t-31.5 -0.5t-20.5 -0.5z" />
<glyph unicode="c" horiz-adv-x="882" d="M66 434v54q0 1 6 10t6 12q4 9 18.5 53t15.5 51q33 81 85 132q7 6 25 23l33 30.5t18 15.5q7 4 24.5 10t26.5 12q0 1 7.5 7l16 12.5t10.5 8.5q10 3 12 7q7 2 19.5 7t21.5 9l9 3q179 -2 191 -5q5 -2 18 -4t20 -5q2 0 13.5 -6t12.5 -6q2 -1 19.5 -6t23.5 -10q36 -31 52.5 -47 t34 -49t17.5 -68q0 -31 -36.5 -62t-69.5 -31h-12q-20 12 -64 34q-6 5 -9.5 16t-5.5 24t-4 17q-33 113 -112 113q-56 0 -104 -43q-5 -5 -37.5 -32t-38.5 -31q-9 -7 -13.5 -16.5t-8 -25t-6.5 -22.5l-6 -12q-6 -12 -6 -14q-23 -53 -23 -152v-22v-42q10 -16 19 -53t16 -51 q10 -17 19.5 -30.5t23 -26.5t21.5 -19l27.5 -20.5l27.5 -20.5q4 -7 7 -7l12 -7h175q16 5 21 7q14 5 39 10.5t35 9.5q9 2 39.5 18.5t45.5 16.5q7 0 7 -5q0 -2 -1.5 -6t-3 -9t-2.5 -8q-26 -69 -89.5 -118.5t-138.5 -61.5q-2 0 -15 -1.5t-26 -3.5t-16 -3q-1 0 -10 -6l-9 -6h-28 q-62 0 -133.5 29.5t-117.5 73.5q-5 3 -48 63q-97 126 -97 285z" />
<glyph unicode="d" horiz-adv-x="1022" d="M253 391q0 -31 13 -73t30 -69q4 -7 21 -18.5t19 -22.5v-23q3 -3 34.5 -25t34.5 -22q49 -7 69 -7q14 -3 30 -15h12q34 0 105 43l7 7q18 24 28 35l14 19v17v40q0 4 3.5 40t3.5 45l3 18q3 19 5 21q0 12 2.5 83.5t2.5 84.5q7 17 7 45v17q0 1 -6 13.5t-6 14.5q-4 9 -9 22.5 l-7.5 20t-9.5 15.5t-17 18q-10 4 -56 19t-48 16q-3 1 -14.5 4.5l-21.5 6.5t-12 4h-7q-24 0 -43 -5.5t-45 -19t-37 -18.5q-2 0 -5.5 -2t-6.5 -4l-3 -1q-26 -24 -42 -62q0 -8 -2.5 -49.5t-2.5 -49.5q-7 -21 -7 -62q-1 -1 -4.5 -9.5t-4.5 -9.5q0 -3 -9.5 -15t-9.5 -13 q-8 -20 -8 -74zM73 398v17q0 5 6 35.5t6 33.5q1 4 3 21.5t3.5 36t1.5 20.5l21 35l14 28l21.5 39.5t23 40.5t22.5 31t32 34q0 1 9 7t10 8q0 1 9.5 12.5t10.5 13.5q2 1 15 7t15 7q1 0 6 7t6 7q2 1 9.5 4.5t12.5 6.5t6 5q1 0 18.5 -1t27.5 -1q16 0 18 2q21 0 46 5q4 0 19 3.5 t16 3.5h170q36 28 39 126v104v104q-5 11 -8 40.5t-12 42.5q-1 3 -9.5 11.5t-9.5 8.5q-2 1 -9 2.5t-13 3.5t-8 3q-1 1 -9 7.5l-16 12.5t-9 6q-1 1 -14 4t-14 5q-17 4 -30 15.5t-13 27.5t11 26t21.5 12.5t32 4t26.5 2.5q2 1 14.5 4.5t13.5 4.5q55 0 69 6q12 2 39 11.5t41 9.5 q26 0 47 -18t27 -44v-52q0 -22 -4 -65t-4 -65l1 -48q0 -2 3.5 -14.5t3.5 -13.5q0 -2 -3.5 -14.5t-3.5 -13.5v-50q-5 -95 -10 -150q-9 -94 -9 -158q0 -66 9 -169q0 -44 1 -132.5t1 -132.5q-14 -43 -14 -105q0 -28 41 -61q34 -22 69 -28q8 -2 23.5 -3.5t24 -3.5t17.5 -8.5 t13 -18.5q-32 -41 -78 -62q-20 -12 -38 -17.5t-50.5 -10.5t-42.5 -7q-10 -7 -14 -7q-9 -2 -10 -2t-5.5 1t-5.5 1q-5 0 -41 12q-13 6 -21 22.5t-16.5 29t-24.5 12.5q-11 0 -19 -7q-51 -34 -76 -48.5t-67 -28.5t-86 -14q-19 0 -41.5 7t-48.5 19t-36 15q-50 21 -108.5 86.5 t-73.5 114.5v20v9q-3 17 -22 70.5t-19 78.5z" />
<glyph unicode="e" horiz-adv-x="848" d="M295 716q0 -22 12 -34t25.5 -14t38 -2.5t34.5 -1.5q1 0 8 -3.5t8 -3.5q26 -8 60 -8q24 0 40 1.5t35 7.5t28.5 19.5t9.5 35.5q0 77 -42 110q-7 0 -40.5 3.5t-37.5 3.5q-10 7 -12 7h-17q-46 0 -98 -39t-52 -82zM66 469q0 141 62 230q74 96 77 104q20 25 86.5 62t77.5 45 q47 9 80 9t60 -7q12 -8 27.5 -12.5t35 -8.5t29.5 -7q69 -16 124 -104q2 -2 8 -13.5t6 -13.5q3 -4 17.5 -19.5t23 -29t8.5 -26.5q0 -64 -28 -78l-42 -14q-7 0 -13 -6q-23 0 -94.5 -1.5t-151.5 -3.5t-95 -2q-49 0 -75 -7q-43 -35 -43 -113q0 -53 28 -123q7 -10 7 -15 q3 -2 14.5 -13.5t12.5 -14.5q3 -1 18 -19t17 -22q1 0 4.5 -3t4.5 -3l81 -64q43 -12 83 -12t85 12q12 7 27.5 14t25 10l30 9.5l26.5 8.5q1 1 3.5 2t5 2.5t4.5 2.5t2 2h6h1q28 -12 28 -16q2 -2 4.5 -15t2.5 -20q0 -16 -9.5 -39.5t-18.5 -34.5q0 -4 -29 -22q-13 -8 -39.5 -27.5 t-48 -32.5t-42.5 -22q-3 -2 -26 -5l-22 -3q-8 -2 -21 -6t-22.5 -6t-20.5 -2q-10 0 -19.5 2t-23 6l-20.5 6q-25 5 -64 18.5t-52 24.5q-4 2 -29 26.5t-28 26.5q0 1 -9.5 7.5t-10.5 8.5q-4 1 -12 10l-9 9q-13 17 -69 106q-14 20 -28 83l-4 9q-3 9 -3 11q-21 49 -21 139z" />
<glyph unicode="f" horiz-adv-x="652" d="M33 47q0 13 5.5 22t9 12t19.5 10t19 8q14 5 47 9.5t45 11.5q9 6 25 22.5t16 18.5v221q-6 19 -6 37q0 10 4 29t4 28q0 13 -4 38t-4 38q0 21 7.5 64.5t7.5 65.5q0 31 -18 46t-41 17.5t-49.5 15t-38.5 37.5v6q0 11 5 16q6 1 36 15.5t37 19.5q43 23 56 69t13 114v47v33 q0 2 2.5 24t2.5 24q0 5 3.5 38.5t3.5 35.5q4 28 34 79t51 68q10 7 12 7q1 1 64 57q29 2 67 24.5t58 29.5h7h19q11 3 43 21h48q25 0 70.5 -3.5t68.5 -3.5q22 0 34 2q6 -3 31.5 -21t31.5 -23q27 -24 34 -34q7 -14 7 -35q1 -2 7 -24t7 -24v-7q0 -5 -2.5 -11.5t-5 -10.5 t-8.5 -10.5t-8 -9t-9 -8.5l-7 -6q-9 -6 -28 -6h-12q-32 0 -46 10.5t-26.5 31.5t-29.5 34q-8 7 -18.5 10.5t-28 6t-22.5 3.5t-20.5 6t-19 6l-15.5 4.5t-18.5 4t-17.5 1.5t-23 1q-3 0 -21 -1t-22 -1q-9 -2 -18.5 -10.5t-19.5 -24.5t-15 -25.5t-14.5 -29l-10.5 -21.5 q-1 -3 -14 -28t-14 -29v-27v-12q0 -3 -7 -28.5t-7 -28.5q-5 -45 -5 -61v-97q0 -1 -3.5 -10.5t-3.5 -11.5q-2 -9 -2 -11q0 -29 28.5 -50.5t60.5 -21.5q14 0 43 14.5t47 14.5q15 0 15 -2q5 0 18 -7.5t17 -11.5q10 -9 10 -27q0 -4 -1 -11t-1 -8v-18q0 -29 -20 -34 q-2 0 -35.5 -6.5t-40.5 -7.5h-11q-20 0 -59 10.5t-58 10.5q-12 0 -15.5 -4t-3.5 -16v-8q15 -180 15 -357v-31q-2 -2 -12 -18l-10 -16v-7q0 -30 8.5 -101.5t6.5 -108.5l19 -19q10 -10 16 -10h97q13 -14 19 -17q22 -22 22 -47q0 -12 -14.5 -25t-26.5 -13h-327q-7 7 -14 7l-4 2 q-6 0 -25.5 -8t-29.5 -8q-34 0 -63.5 13t-29.5 41z" />
<glyph unicode="g" horiz-adv-x="997" d="M306 600q0 -21 13.5 -40.5t13.5 -28.5v-15v-40q0 -1 3.5 -10.5l7 -18.5t5.5 -13q0 -7 7 -7l14 -3q13 -3 14 -5q7 -3 12 -15.5t26 -12.5q32 0 81 12.5t60 30.5q7 7 14 35q3 2 12 10t9 9q13 16 21 54.5t8 62.5q0 84 -29 129q0 1 -21 27q0 2 -9.5 20.5t-10.5 21.5 q-6 9 -49 34q-6 6 -14 6q-4 -1 -21 -10t-20 -10q-1 0 -14 -3.5t-14 -4.5q-10 -4 -35 -35q-13 -3 -13 -7q-1 0 -7.5 -5.5t-8.5 -6.5q-17 -21 -27.5 -71t-12.5 -55q-2 -1 -8 -13.5t-6 -14.5q-1 0 -1 -7zM307 -379q1 -1 9.5 -4t9.5 -3q2 -1 15 -3.5t15 -4.5q14 -4 40 -15 t48 -18t43 -7q28 0 70 14q2 0 15 6l12 7q2 1 24 3t26 4q14 14 26 21q4 3 26.5 29t24.5 28q12 12 33 24.5t28.5 25t7.5 40.5v14q0 1 -7 13t-7 15q-1 1 -4.5 13t-4.5 13q-1 2 -15.5 18t-18.5 18l-11 11.5l-11 11.5l-10 10t-11 10.5l-10.5 8.5t-13 8.5l-13 6t-15 6t-16.5 3.5 h-55q-17 2 -63 21h-59q-118 0 -155 -28q-2 -2 -20.5 -16t-29.5 -18q-7 -25 -7 -68v-28v-12q0 -89 29 -121q3 -8 24.5 -29.5t30.5 -27.5zM252 -533q-36 11 -112 57q-18 7 -21 7q-41 25 -69 113q-1 0 -2.5 7t-3.5 15.5t-3 11.5q0 1 1 6t1 8q0 5 -2 5q0 24 -12 78v2v5 q7 22 28 54q0 1 6 8.5l12.5 16t8.5 11.5q36 40 49 48q19 16 78 49q12 9 12 24v10q-58 17 -83 35q-32 24 -40.5 51.5t-8.5 76.5q0 17 8.5 34.5t15 25t28 27t24.5 22.5q4 3 27 14t29 21q3 4 12 21t10 18v9q0 15 -16.5 20.5l-36.5 12t-25 22.5q0 2 -3 14.5t-4 13.5 q-7 14 -17 30t-17 29.5t-12 30.5q-4 7 -4 52q0 50 4 52q0 5 26 76q28 76 48 104q20 24 35 36q21 24 32.5 35.5t32 23.5t45.5 17q3 1 35 3.5t35 3.5q4 0 15 6.5t12 9.5q35 5 66 5q21 0 33 -14q6 0 90 -14q10 -1 15 -6.5t9 -14t10 -13.5q47 -35 77 -35q48 0 90 35q6 4 10 8.5 t7.5 6.5t11.5 4q5 3 38 3q56 0 85 -22t29 -78q0 -43 -11.5 -59.5t-54.5 -16.5h-3q-4 0 -39 3.5t-39 3.5q-9 0 -21.5 -8t-12.5 -18v-182q0 -36 -28 -85q-57 -105 -145 -123q-6 -1 -45 -7t-45 -8h-28q-7 -1 -20.5 -6.5t-22.5 -5.5h-12q-2 0 -18 3.5t-17 3.5h-55q-4 0 -19 2.5 t-16 2.5h-7h-9q-7 -3 -25.5 -22t-20.5 -25q-2 -2 -5 -13t-6.5 -25.5l-4.5 -18.5v-10q0 -12 3 -20.5t10 -14t13 -9t17.5 -5t17.5 -2t19 -1t17 -0.5h85q1 0 19.5 -3.5t21.5 -3.5h52h45q3 0 25 7t25 7h6h6q1 0 14 -7t14 -7q3 -1 25.5 -3t23.5 -2q2 -2 18 -15.5t18 -14.5 q26 -5 48 -14q13 -5 20.5 -13t15.5 -21.5t13 -20.5q6 -9 23.5 -20.5t24.5 -22.5q42 -54 42 -187v-14q-22 -145 -150.5 -238.5t-280.5 -93.5q-38 0 -113 2.5t-112 2.5h-45z" />
<glyph unicode="h" horiz-adv-x="1074" d="M648 -7q-5 4 -20 13t-22.5 17.5t-7.5 21.5q0 9 1.5 17t6 13.5l8 10t12 7.5t12.5 5t14.5 3.5l14 2t15 1.5t13.5 1l15 13v187q-7 14 -7 26q0 18 7 78q0 1 3.5 13.5t3.5 15.5v26q0 2 3.5 13.5t3.5 14.5l-14 159q-34 40 -50 57q-24 28 -126 28q-43 0 -47 -2q-1 0 -16.5 -7 t-18.5 -7q-2 0 -23 -2.5t-23 -2.5q-1 0 -4.5 -3.5t-4.5 -3.5q0 -4 -3 -15t-4 -12l-7 -7q-9 -16 -15 -48.5t-6 -53.5q0 -25 9 -38q-2 -14 -2 -87q0 -74 2 -86q0 -17 12 -173q0 -3 2 -18.5t3 -20.5t3.5 -16.5t6 -20t8.5 -16.5q7 -2 27.5 -12.5t25.5 -15.5q9 -4 9 -15v-9 q0 -15 -5.5 -24.5t-17.5 -13t-21 -5t-27.5 -2t-25.5 -0.5h-15h-13q-23 9 -29 9q-16 0 -51.5 -3.5t-38.5 -5.5q-10 -1 -30 -3.5t-29 -3.5h-79q-24 13 -28 16q-9 14 -9 26q0 13 9 27q0 4 7.5 12t13.5 11q5 2 36 7t49.5 16t18.5 32v173q-7 17 -7 28q0 1 3.5 10t3.5 11v10 q0 7 -1 20.5t-1 19.5q0 21 8 40v138q-6 17 -6 45q0 21 11 44.5t11 36.5q0 18 -4.5 49.5t-4.5 47.5q0 15 4.5 44.5t4.5 43.5v44l-5 13q-4 12 -4 14v94v36q0 6 -3.5 53.5t-3.5 53.5v26q0 1 -3 7t-3 7q-23 36 -42 42q-4 0 -15.5 3.5l-24 7t-15.5 4.5h-19q-51 0 -51 30v5 q7 25 7 34l6 7q11 3 35.5 7.5t42.5 9t34 11.5l7 7l14 5q9 7 48 7q3 1 8.5 7.5t5.5 8.5q23 19 69 19q47 0 56 -19q15 -80 22 -97q0 -3 6 -15.5t6 -14.5v-19v-21q0 -2 -2.5 -11.5t-2.5 -10.5q-9 -59 -9 -149q0 -5 1 -36.5t1 -37.5q7 -16 7 -49v-20v-40q-14 -22 -16 -30v-5v-7 q1 -2 10 -28.5t11 -33.5q5 -13 7.5 -14.5t15.5 -1.5q12 0 12 2l57 54q23 2 81 12t90 10q66 0 92 -7q3 -1 21.5 -10.5t19.5 -9.5t13.5 -3.5t14.5 -3.5q18 -10 21 -16q4 -4 20.5 -23.5t22.5 -27.5t16.5 -24.5t14.5 -32t4 -32.5q0 -37 -9 -87l-3 -7q-4 -7 -4 -8v-7v-5 q7 -18 7 -246q0 -1 -3.5 -12t-3.5 -14v-112q-1 -1 -4 -9.5t-3 -9.5q0 -8 5.5 -29.5t8.5 -26.5q4 -7 17.5 -20.5t17.5 -13.5l78 -16q1 0 27 -26q7 -17 7 -22q0 -21 -41 -28q-17 0 -102 -3.5t-99 -3.5h-9h-7l-12 4q-13 3 -15 3q-3 0 -22 1t-34 1q-14 0 -33 -1t-22 -1z" />
<glyph unicode="i" horiz-adv-x="528" d="M155 1211q0 39 21.5 75.5t56.5 54.5q60 5 83 5q0 3 3 3q18 0 33 -10.5t23.5 -23t18.5 -29.5l3 -6q22 -38 22 -43q0 -1 1 -18.5t1 -23.5q0 -62 -36.5 -108t-96.5 -46q-2 0 -11 1t-12 1q-5 5 -30 28t-32.5 32t-22.5 29t-20 38.5t-5 40.5zM73 61q0 21 18 37t41 33t31 35 q9 21 9 52q0 9 -1 25t-1 23v11q0 1 4 14l3 13v77q0 1 3.5 19t3.5 20t-3.5 15t-3.5 15v3v2q0 3 6 21.5t6 20.5l1 7q1 8 2 17.5t1 14.5q0 69 -23 99q-2 2 -16 19l-26 32t-13 18q0 1 -3 7.5t-6.5 15t-4.5 12.5v5q0 14 19 29q40 29 85 50q19 0 28 7q3 1 33.5 17.5t33.5 17.5 q2 0 15.5 1t17.5 1t13.5 -1t10.5 -1l12 -22q2 0 9 -77v-10q0 -17 -9 -29q0 -2 1 -23t1 -36t-1 -37t-1 -24q0 -3 -6 -27.5t-6 -25.5v-18q0 -16 10.5 -33t10.5 -26q0 -51 -16 -69q2 -14 2 -43q0 -45 -7 -111l-3 -12q-4 -13 -4 -14v-17v-10q0 -21 7 -28l90 -90q0 -7 7 -21v-7 q0 -21 -17.5 -41.5t-39.5 -20.5h-54h-55q-14 0 -76 3.5t-69 3.5q-70 5 -70 61z" />
<glyph unicode="j" horiz-adv-x="493" d="M153 1368v37q1 13 13.5 21t32 14t23.5 8q2 0 14 7l13 7l15 1q15 1 20 1q4 0 18.5 -1t16.5 -1q24 -24 27 -28q16 0 23 -7l7 -7v-97q0 -1 -4 -9t-10 -17.5l-9 -14.5q-8 -16 -55.5 -29.5t-72.5 -13.5q-17 0 -17 1q-1 0 -6.5 5.5l-12 12t-9.5 8.5q-13 16 -19 33.5t-7 30 t-1 38.5zM-263 -517q0 24 7 45q4 16 21 57q15 27 92 27h10q27 0 46 -14t28.5 -30.5t29.5 -30.5t47 -14q93 0 93 46v16q0 1 -3.5 13t-3.5 14q0 1 10.5 17t10.5 18l9 14q0 37 5 55q0 2 7 24t7 25v8q0 16 -3.5 48t-3.5 48q0 35 13 152q1 2 5 13t4 13v26q0 10 -4.5 28.5 t-4.5 26.5v3q1 1 5 16.5t4 18.5q0 1 -1 14t-1 21q0 12 2 14q0 1 6 20.5t6 22.5q2 27 2 38q0 21 -7 59t-7 55q0 32 2.5 94t2.5 93v81q0 2 -2.5 14.5t-2.5 15.5q-3 3 -9 15l-6 12q-1 1 -20 3t-22 4q-1 1 -12.5 6t-24.5 11.5t-18 10.5q-6 2 -21 12v5q0 7 7 18t14 12 q22 7 66 11.5t78.5 15t55.5 37.5q19 8 38 8q18 0 40 -8q2 0 12 -9t14 -14q9 -7 9 -29q0 -42 -16 -102q0 -4 1 -43t1 -65t-1 -64.5t-1 -42.5t-3.5 -44.5t-3.5 -45.5v-199q0 -77 -5 -119q0 -1 -3.5 -11t-3.5 -12q-2 -17 -2 -26q0 -19 4.5 -61t4.5 -63q0 -13 -4.5 -38t-4.5 -38 t4.5 -38.5t4.5 -37.5q0 -45 -19 -114.5t-45 -102.5q-1 -1 -19.5 -16t-20.5 -18q-18 -15 -37.5 -48.5t-26.5 -41.5q-10 -14 -37 -35t-37 -34q-7 0 -31 -1.5t-50 -3.5t-32 -2q-2 0 -10 -3.5t-10 -3.5h-14q-120 0 -208 98q-7 7 -7 21v9z" />
<glyph unicode="k" horiz-adv-x="1015" d="M758 -7q-14 1 -79.5 8l-74.5 8q-33 0 -49 7q-14 9 -14 27v9q0 33 7 45q3 7 19 26.5t16 35.5q0 69 -54 133q-2 1 -18.5 17t-19.5 18q-2 3 -10 13.5t-12.5 15.5t-12.5 12t-16.5 10.5t-17.5 3.5q-22 0 -41.5 -29t-20.5 -52v-61v-58q2 -28 25.5 -53.5t45.5 -45t22 -33.5 q0 -30 -66 -50h-88h-90q-13 1 -84 4.5t-84 4.5q-20 13 -20 36t12 40l15 5q12 7 42 7q4 2 18 7t25 9.5t12 5.5q9 5 14 21q24 51 28 152q0 2 0.5 31t0.5 49t-0.5 48t-0.5 32q8 11 8 34q0 6 -0.5 18t-0.5 17q0 8 5 28.5t10 28.5v166l12 41v77q0 134 7 249q1 2 4.5 21.5 t4.5 21.5v7v7q-1 2 -5 17.5t-4 16.5v97q-8 12 -19 16q-82 26 -92 26h-10h-31q-20 4 -28 8q-15 10 -15 13l22 41q19 -1 31 2.5t27.5 12.5t26.5 13q7 3 31.5 15.5t40.5 20t36.5 14.5t33.5 7q35 0 71 -7q23 -12 27.5 -64.5t13.5 -67.5v-154l-4 -9q-3 -9 -3 -11v-64 q0 -85 -5 -123q0 -2 -3.5 -21t-3.5 -22v-25q0 -19 3.5 -59.5t3.5 -61.5q0 -23 -7 -70.5t-7 -69.5v-19q0 -48 7 -97q9 -15 24 -15q17 0 31.5 8.5t31.5 25t24 21.5q1 2 14 8.5t14 7.5q8 4 13.5 12t12 20t8.5 16q3 4 16.5 17t19.5 23t6 22q0 29 -7 50q-4 12 -30.5 23.5 t-26.5 32.5q0 5 3 7q1 0 8.5 9t10.5 10q9 5 42 15.5t43 11.5q3 2 28 2q16 0 45 -1t31 -1q9 0 27 8t28 8l7 -2q1 0 9.5 -3.5t9.5 -3.5q6 0 28.5 -2t43 -3.5t25.5 -1.5q5 -1 13 -8t9 -12q2 -18 2 -25q0 -1 -1 -11t-1 -13q0 -1 -30.5 -11.5l-65 -23.5t-42.5 -20 q-2 -2 -14.5 -10.5t-13.5 -8.5q-1 -2 -9 -5t-18.5 -6.5l-13.5 -4.5q-4 0 -15.5 -3t-12.5 -4q-4 -1 -17 -14.5t-17 -19.5q-2 -1 -9 -11l-7 -10q-1 -2 -13 -7.5t-13 -6.5q-2 -1 -12 -9.5l-22 -18.5t-16 -13q-1 -1 -8.5 -8l-12.5 -12t-9.5 -12t-4.5 -13v-4q1 -3 14 -28t14 -29 q0 -1 3.5 -9.5t3.5 -9.5q1 -2 2.5 -5.5t3.5 -6.5l1 -3q3 -2 18 -17t16 -18q3 -3 11 -20t10 -22q6 -10 28 -20t29 -19q0 -11 12 -35l7 -16l34.5 -34.5l34.5 -34.5q9 -8 22 -23.5t24.5 -26.5t24.5 -19q3 -3 28.5 -14.5t27.5 -13.5q1 -1 15.5 -13t18.5 -16q49 -42 49 -61 q0 -32 -56 -36h-110q-16 -7 -35 -7q-21 0 -34 7z" />
<glyph unicode="l" horiz-adv-x="615" d="M241 9h-7q-84 -16 -144 -16q-28 0 -44.5 11.5t-32.5 38.5q-7 9 -7 21q0 14 19 27t36 15h83q7 1 29 17.5t26 23.5q4 3 9 19.5t5 22.5q-3 60 -3 64q0 39 5 117t5 116v19v50q1 2 4 34t5 36v15q0 13 -4.5 39.5t-4.5 40.5q0 26 14 43q-2 9 -2 62q0 54 2 64q0 1 3.5 13t3.5 15 v10q0 18 -7 31v139q-4 10 -14 40v12q0 13 4.5 39t4.5 40q0 24 -16 76q-7 26 -15.5 36t-32.5 13q-6 0 -41.5 3.5t-41.5 3.5q-2 1 -8 6.5l-13 12t-9 8.5v14v16q9 5 57 47q12 6 16 6q2 1 33.5 3t35.5 4q3 2 23.5 18t23.5 19q32 0 41 7q4 1 29 14t27 13h8q12 0 19 -3.5 t15.5 -11.5t14.5 -12q4 -3 18 -10t21.5 -15.5t7.5 -21.5v-4q-21 -103 -21 -138q0 -8 4.5 -26t4.5 -26v-5q-1 -1 -4.5 -9.5t-4.5 -9.5v-194q0 -3 -3.5 -18t-3.5 -16q0 -101 -7 -134l-3 -12q-2 -12 -2 -15v-132q0 -3 -3.5 -27.5t-3.5 -25.5q0 -2 -1 -9t-1 -9q0 -24 4.5 -71.5 t4.5 -71.5v-28q0 -3 -16 -35q0 -9 -3 -52.5t-4 -50.5q0 -3 -3.5 -18t-3.5 -17v-10q0 -15 2 -30.5t6.5 -35.5t5.5 -28q1 -2 4.5 -25t4.5 -25q1 -5 9 -14.5t10 -9.5h126q10 0 35 -17q5 0 5 -6q19 -26 23 -41v-5q0 -49 -23 -57q-119 -16 -164 -16q-13 0 -31.5 8t-29.5 8 q-10 0 -26 -15t-27 -15q-10 0 -29.5 11.5t-31.5 11.5z" />
<glyph unicode="m" horiz-adv-x="1539" d="M1033 54q7 10 8 15q0 5 14 19q10 13 47.5 22t42.5 20q6 13 14 44t16 46v245l19 35v97q-6 8 -7 12q-12 18 -12 22q-3 4 -7 19.5t-9 22.5l-57 55q-11 7 -40 7h-24h-45q-2 0 -12 -3.5t-11 -3.5q-66 -20 -83.5 -37t-32.5 -82v-173q0 -2 -3 -30t-3 -32v-7v-9q0 -2 3 -39.5 t3 -41.5q0 -9 -0.5 -33t-0.5 -38q0 -49 14 -76q7 -13 31 -21t31 -14q34 -20 34 -48v-5q-1 -8 -19 -23l-34 -21h-244q-9 0 -42 14q-27 17 -27 49q0 20 27.5 46t34.5 38q1 1 4 9.5t3 9.5v37q0 3 6 20t9 21l-1 7v16.5v16.5q0 12 1 14q0 16 6.5 43.5t6.5 41.5q0 20 -7 34v159 q0 3 -0.5 13t-1 14.5l-1.5 13.5t-2.5 14.5l-3.5 13t-5 13t-7 10.5q-31 36 -64 52.5t-80 16.5h-29q-3 0 -14.5 -6l-24.5 -12.5t-18 -8.5q-9 -6 -16 -15.5t-9.5 -15.5t-7.5 -20.5t-7 -18.5q-19 -31 -22 -41q-1 -4 -3 -42t-4 -43q0 -1 -3 -14t-3 -14v-26q0 -87 6 -162 q1 -7 2 -35.5t5 -45.5q0 -7 22 -58q3 -10 5 -12q18 -29 23 -29q0 -1 9.5 -3.5l19.5 -5t12 -3.5l20 -20t20 -23q0 -1 1.5 -6.5t1.5 -7.5q0 -14 -11.5 -27t-26.5 -13l-124 -5l-19 -2h-147q-15 -9 -26 -9h-9q-76 22 -76 52q0 21 21 61q3 5 8 9.5t9.5 6.5l12.5 5.5t11 4.5 q13 7 26.5 31t15.5 40q0 1 10 79t11 94v50v19q0 1 6.5 13.5t6.5 14.5v12q0 15 -3 47.5t-3 49.5q0 6 3 18t3 18v7q-3 19 -13 43q-4 11 -23 16.5t-38.5 7t-35.5 14t-16 35.5q0 11 7.5 18.5t19.5 14t16 10.5q1 1 23 24.5t26 25.5q1 1 27 6.5t28 7.5l35 35q10 8 31 14t35 6h3 q25 -5 30 -10t5 -28q0 -11 -3 -33t-3 -34q0 -35 35 -35q10 0 12 2q6 3 50 41l47 47q5 5 13.5 8t17.5 5t12 3q6 1 28 11.5t28 15.5h112q9 0 19 -7.5t20.5 -20t14.5 -15.5q0 -1 13 -6t14 -6q12 -6 31.5 -37.5t43.5 -31.5q16 0 26.5 6.5t22 21.5t15.5 19q35 28 57 50 q19 13 74 19q9 3 69 8h16q61 0 111 -27q1 -1 20.5 -10t22.5 -11q22 -33 26 -42l11 -21.5l10 -19.5l7 -20.5t12.5 -39.5t9.5 -30q5 -21 5 -40v-10q0 -3 -6 -21t-6 -21v-24v-57q0 -5 -8 -29v-51v-19q-1 -25 -10 -79.5t-9 -84.5q0 -74 19 -107q10 -15 39.5 -27t51 -26.5 t21.5 -40.5v-10q-17 -17 -23 -19q-4 -3 -13.5 -9t-17 -10t-8.5 -4h-300q-28 0 -56 20.5t-28 49.5z" />
<glyph unicode="n" horiz-adv-x="1070" d="M597 36l3 18q0 2 11.5 9l24.5 14.5t16 10.5q14 14 35 61q0 1 1.5 22t1.5 23q6 25 12 86.5t16 93.5v84v68q0 125 -35 195q-9 5 -41.5 19t-41.5 16h-48q-1 0 -7.5 3.5t-8.5 3.5h-5q-9 0 -21 -7q-26 -14 -43.5 -27.5t-27.5 -23t-17 -28.5t-9.5 -28.5t-7 -40t-7.5 -46.5 l-2 -13q-3 -13 -3 -14v-49q0 -4 -7 -29t-7 -26q-9 -40 -9 -90q0 -25 5 -54.5t12.5 -64.5t10.5 -56v-21q4 -17 20.5 -28.5t34 -16.5t31.5 -16.5t14 -28.5q0 -22 -22 -43l-21 -12h-201q-14 7 -34 7q-21 0 -62.5 -8t-62.5 -8q-31 0 -31 42l2 21l2 6l6 12.5t4 8.5q5 7 8 7 q2 1 21 8t21 8q58 33 62 154v105v108q-5 13 -5 29v3q0 17 14 49.5t14 51.5q0 38 -16.5 77t-46.5 54q-10 7 -22 7q-19 9 -42 35q0 17 26 43q2 0 12 2.5t11 2.5q15 7 37 29t32 28q12 7 41.5 20t43.5 22l12 5q9 0 22 -5q2 -2 16.5 -11t18.5 -12q9 -6 20.5 -43.5t26.5 -37.5 q18 0 35.5 8t25 13.5t28 25.5t23.5 22q10 4 14 5q10 6 30 14.5t36 14.5t17 6q17 3 24 3q65 0 149 -43q3 -2 13 -8t13 -8l11.5 -7.5t12 -8.5t10.5 -8.5t10.5 -10.5t7.5 -11.5t7 -13.5q27 -78 27 -206v-24q0 -1 -2.5 -4t-4 -6t-1.5 -4q0 -2 4 -14.5t4 -14.5v-9v-10 q-4 -85 -8 -97q0 -53 -12 -78v-69v-42q0 -92 34 -124q9 -9 24 -9q5 0 13.5 1t11.5 1h7q23 -7 47.5 -25t24.5 -37q0 -2 -1.5 -8.5t-1.5 -7.5q-2 -4 -20 -21t-20 -21q-3 -1 -9 -3.5t-7 -2.5h-216q-45 0 -107 14.5t-62 43.5z" />
<glyph unicode="o" horiz-adv-x="996" d="M262 417q0 -81 62 -189q6 -10 13 -29t15.5 -31.5t25.5 -20.5q32 -13 34 -16q9 -6 20.5 -18.5t22 -20t25.5 -7.5q16 0 32 3.5t33 14l27.5 17t28.5 24l23.5 23t25 27t20.5 22.5q5 18 18 41t17 35q15 38 15 109q0 108 -40 213.5t-114 170.5q-4 0 -20 1t-20 1 q-113 0 -160 -71q-16 -19 -23 -29q-1 0 -10 -5.5t-9 -6.5q-11 -11 -16 -23q0 -39 -6 -47q0 -3 -6.5 -14.5t-6.5 -12.5q-4 -8 -6.5 -17.5t-4.5 -21.5t-4 -18q-1 -8 -4 -29l-5.5 -39t-2.5 -21v-15zM393 -7q-14 8 -47 14.5t-44 13.5q-26 16 -70 57l-43 42t-31 34q-1 0 -9 13.5 l-19 33.5l-15 27q-42 78 -42 108v173q18 48 21 96q2 5 55 104q8 14 17 26t22.5 24l20.5 18.5t26.5 18l23.5 14t29 16.5t27 15q20 10 65 20.5t55 13.5q3 1 12.5 6t17 7.5t15.5 2.5t10 -2q1 0 13.5 -3.5t14.5 -3.5h48q20 -1 41.5 -17.5t34.5 -16.5h45h18q2 0 15 -10l12 -9 q1 -2 8 -5t8 -4q16 0 34 -7q11 -5 16 -21t10 -20q14 -7 28 -21q2 0 4.5 -2.5t2.5 -4.5q50 -50 50 -57q5 -5 5 -40l10.5 -31t12.5 -33v-201q0 -6 -6 -32t-10 -37q0 -2 -5.5 -14.5t-6.5 -13.5q-2 -5 -8 -31.5t-14 -37.5l-12 -14q-9 -11 -26.5 -44.5t-30.5 -45.5t-42.5 -29.5 t-39.5 -27.5q-2 0 -9.5 -7.5t-16.5 -17.5l-8 -9q-1 0 -28.5 -9.5t-35.5 -11.5q-20 0 -90 -14h-7h-7q-10 0 -63 3.5t-62 3.5z" />
<glyph unicode="p" horiz-adv-x="1028" d="M333 225q2 -11 5.5 -21t7 -17t11.5 -15l12 -12t16 -11l15.5 -9t18.5 -9.5t18 -9.5q8 -4 19.5 -11.5l19 -12t18.5 -8t22 -3.5q106 0 156 90q5 9 9 30.5t5 25.5q6 17 24.5 48t23.5 49q23 68 23 190q0 26 -23 62.5t-27 44.5q-1 2 -6 18t-6 17q-14 11 -23 15l-28 28 q-6 12 -6 14q-19 26 -57.5 47.5t-67.5 21.5h-7q-1 0 -10.5 -7t-11.5 -7q-12 -3 -29.5 -5t-29 -6t-23.5 -16q-40 -45 -41 -51q-5 -3 -15.5 -24.5t-12.5 -28.5v-113q0 -1 -4 -13t-5 -13v-96q9 -27 9 -35v-147zM-22 -507v17l21 21q10 5 14 5q2 2 19 2q11 0 30 -1t20 -1 q14 3 32 25.5t24 38.5q2 3 7.5 24.5t5.5 24.5q1 1 7.5 16.5t8.5 17.5q0 35 5 83q0 13 0.5 23.5t2 17.5l2.5 12t1 7l1 3q0 15 -1.5 29.5t-3.5 23.5l-2 9q-5 17 -5 69l-3 15.5l-3.5 18t-2.5 8.5l-4 4l-6.5 9t-3.5 9q0 8 6.5 21t7.5 19q9 52 9 126v63q-5 2 -9 34q2 12 11 62.5 t10 76.5v57l1 3q0 3 1 8.5t2.5 13t2 19.5t0.5 25q0 64 -7 131l-28 35q-5 5 -58.5 17.5t-53.5 37.5q0 14 12.5 22t33.5 13t25 7q1 0 7 4t13.5 11l13.5 13l14 6q3 0 25 3.5t24 3.5q1 0 13.5 7t15.5 9q4 0 57 5q16 0 24 -5v-57q2 -21 40 -21q23 0 55 26t37 29q95 51 164 51 q9 0 12 -2q1 0 16.5 -3.5t18.5 -3.5h24h11q5 0 26 -14q6 -3 29 -20.5t26 -19.5l85 -84l13 -10q13 -10 13 -13q3 -6 8 -35q4 -14 17.5 -40t17.5 -41q0 -39 7 -41q2 -9 14.5 -50t12.5 -61q0 -13 -1.5 -36.5t-3 -41.5t-1.5 -21q-7 -15 -9 -19q-10 -36 -26 -69 q-5 -10 -14.5 -32.5t-17.5 -38.5t-18 -28l-69 -83q-13 -13 -26.5 -21t-21.5 -10l-8 -3q-26 -16 -34 -23q-15 -9 -44 -22t-32 -14q-67 -16 -115 -16q-53 0 -121 16l-7 -4q-7 -3 -15.5 -7.5t-11.5 -5.5q-23 -15 -23 -50v-9q0 -37 3.5 -113.5t3.5 -120.5q0 -8 -0.5 -32.5 t-1.5 -59t-1 -55.5q10 -14 61 -29.5t51 -37.5q0 -16 -16 -34.5t-32 -22.5h-154q-28 0 -63 5l-2 2q-3 1 -6 1q-99 4 -163 21q-3 1 -9.5 2.5t-9 2.5t-7.5 2.5t-6.5 3t-5 4t-4.5 5l-2.5 6.5t-2 8.5t-0.5 10.5z" />
<glyph unicode="q" horiz-adv-x="1013" d="M273 410q0 -37 6 -62t24 -63.5t25 -56.5q7 -5 7 -13q24 -27 69 -64l23 -13q21 -7 40 -7q16 -4 39.5 -22t37.5 -21q13 -1 68 46t66 67q12 36 12 62q7 112 7 168q1 3 4.5 34.5t3.5 34.5v21v19q0 7 -7 45t-8 46q0 8 -7 13q0 2 -2.5 4.5t-2.5 3.5q-4 6 -11 24t-15 31.5 t-18 20.5l-12 6q-13 6 -14 8q-10 4 -34 28q-14 8 -28 8h-12q-36 0 -52 -8q-1 0 -7 -7t-8 -7q-27 -9 -47 -9l-76 -74q0 -12 -7.5 -21.5t-19.5 -19t-17 -16.5q0 -1 -3 -13t-3 -13q-21 -69 -21 -180zM489 -547q0 39 15 50t44 12t45 11q3 2 14 13t14 15l6 13v78q-1 0 -3.5 5.5 t-2.5 6.5q0 3 7 19l6 16q1 3 3 10t4 12.5t2 6.5t-1 25.5t-1 38.5q0 23 2 26q0 3 6 21.5t6 20.5q7 25 7 28v11q1 10 1.5 23t0.5 19q0 7 -0.5 21t-1.5 25v11q0 27 -7 51q0 5 -7 5h-27q-5 0 -11.5 0.5t-9.5 0.5q-13 0 -21 -6l-14 -14.5t-14 -15.5q-18 -12 -58 -12h-37h-8 q-9 -9 -16 -9h-5h-7q-52 7 -69 16q-13 2 -40.5 9.5t-29.5 9.5q-3 2 -28.5 25t-28.5 25q-50 39 -69 75q-13 33 -14 34q-4 12 -17 29t-17 28q0 1 -3.5 10.5t-3.5 10.5q-2 3 -8 17.5t-6 17.5q-1 2 -4 31t-5 33q0 10 -6 33.5t-6 38.5q0 24 21 106q0 5 3 22.5t4 18.5q0 1 7 11 t7 12q18 31 20 40q0 2 3.5 11.5t3.5 10.5l7 12q43 51 140 142l5 5q5 5 9.5 9t4.5 5q14 10 35.5 16.5t35 9t42.5 5.5t35 4q4 1 44 4.5t44 3.5q2 0 12 4l10 3h7h9q1 0 9.5 -3.5t9.5 -3.5t20 -4t21 -4q9 -3 38 -19t45 -16q19 0 55 8t54 8h25q7 -4 12 -20.5t8.5 -37t6.5 -27.5 v-104q0 -3 3.5 -18.5t3.5 -16.5v-6v-9q0 -1 -3.5 -13t-3.5 -13q0 -8 1 -26.5t1 -28.5q0 -41 -17 -64v-251q1 0 4.5 -5.5t3.5 -6.5t-4 -11t-4 -12q0 -5 -3.5 -22t-3.5 -18v-98q0 -2 -2.5 -20.5t-2.5 -19.5q0 -3 2.5 -15.5t2.5 -13.5v-9v-5q0 -2 -6 -17.5t-6 -17.5 q-1 -5 -4 -40t-3 -43q-1 -1 -4.5 -10.5t-4.5 -10.5v-22q0 -35 5 -114t4 -122l48 -48h125q4 0 14.5 -10.5t12.5 -17.5q4 -15 4 -19q0 -57 -121 -78h-133h-132q-71 0 -97 7q-2 0 -10 3t-15.5 7t-8.5 4q-20 6 -27.5 13t-7.5 25z" />
<glyph unicode="r" horiz-adv-x="762" d="M80 7q-20 12 -20 47q0 25 59 68t65 51q14 20 14 62v127q0 2 8 26.5t8 28.5q-12 28 -23 92v8q0 19 4.5 56.5t4.5 57.5l-2 35q0 2 -13.5 27t-20.5 35q-6 9 -34.5 26t-28.5 37v7q2 4 12.5 14.5t15.5 12.5q10 7 16 7q1 3 34 16q2 0 20 17t20 17h21h12q47 0 66 -15 q2 -1 10.5 -9.5t8.5 -9.5q2 -4 6.5 -18.5t10.5 -23t17 -8.5q12 0 18.5 20t9.5 23q34 34 50 41q2 1 26.5 6.5t27.5 5.5q4 2 42 15t42 15l15 1q15 1 20 1q1 0 16.5 -1t18.5 -1l7 -7q6 -5 20.5 -15.5t19 -14.5t14 -13.5t13 -16t8.5 -17t6.5 -22.5t1.5 -27v-13q-13 -68 -14 -69 q-17 -27 -83 -27q-55 0 -90 27q-6 3 -18.5 11.5t-22.5 12.5t-20 4h-14q-46 0 -64 -16q2 -24 -5.5 -70t-8.5 -61v-12v-35q0 -2 -7.5 -37.5t-7.5 -40.5v-110q-7 -8 -7 -25q0 -6 1 -14.5t1 -9.5v-36q0 -1 2.5 -13t2.5 -13v-43q0 -9 7 -19q17 -31 27 -57q45 -7 86 -26.5 t41 -53.5q0 -16 -17 -34t-33 -18h-243q-45 16 -117 16q-43 0 -63 -2z" />
<glyph unicode="s" horiz-adv-x="684" d="M60 142v24q0 1 6 13t6 13q2 5 10 32.5t18.5 40t30.5 12.5h10q3 0 16 -23l13 -25.5t15.5 -29.5l16 -27.5t19.5 -29t21.5 -23.5t26 -20.5t28.5 -12t33 -5.5q25 0 72 32t54 53q10 34 10 47q0 20 -10 41q0 21 -61 69t-93 65q-4 1 -20 4t-22 8q0 2 -4.5 6.5t-9 8.5t-8.5 8 l-5 4q-1 3 -14 12.5t-14 10.5l-14 7l-55 55q-3 9 -21 69q-1 6 -4.5 19l-6.5 23.5t-3 11.5q-4 54 22.5 112.5t67.5 89.5q1 1 11 4t12 5q7 3 61.5 38.5t81.5 35.5q19 0 76 -20q5 -1 21 -6.5t21 -7t19 -7t19 -8.5t16 -9t15 -11.5t11 -13.5t9.5 -16.5t5 -19.5t2.5 -24 q0 -36 -13.5 -78t-42.5 -42h-6q-1 1 -6.5 14t-7.5 14q-70 126 -166 126q-30 0 -42 -8q-36 -28 -52.5 -57t-16.5 -71q0 -43 35.5 -74.5t82.5 -46.5q2 -1 20 -4t21 -3q1 0 7 -3.5t7 -3.5q14 -11 44.5 -31t48.5 -33t41 -34t39 -42q1 -1 5.5 -10.5l9.5 -21t7 -15.5q0 -5 2.5 -22 t4.5 -20q4 -10 19.5 -35.5t15.5 -43.5q0 -15 -4.5 -31.5t-9 -26.5t-14.5 -30l-14 -28q-16 -27 -69 -74q-72 -64 -192 -64q-93 0 -142 22q-33 22 -43 26q-3 2 -15 9t-14.5 9t-11.5 8t-11 8.5t-8.5 8.5t-8 10.5t-5 11.5t-4.5 14t-2 16.5t-1 20.5z" />
<glyph unicode="t" horiz-adv-x="656" d="M150 159v56v55q0 1 1.5 10.5t3 21.5t1.5 18q2 1 5 15.5t3 19.5v93v36q0 18 7 28v166q0 8 -6 13.5t-16 10.5l-12 6q-8 3 -29.5 7t-28 11.5t-6.5 29.5l1 21q1 1 17.5 16t17.5 18q4 3 15 18.5t13 16.5q11 12 26.5 31t26 30t23.5 20q3 2 13.5 11.5t16.5 14t15.5 9.5t16.5 5 q20 0 33.5 -7t21 -21t12 -26.5t9 -33.5t7.5 -31h9q4 0 11.5 -1t10.5 -1q2 0 17 3q11 4 30 4q7 0 23 -1t24 -1q28 0 62 -21t34 -45q0 -16 -25.5 -37t-43.5 -21h-14q-3 1 -34 1h-49h-46q-27 -18 -38 -43q-5 -16 -7.5 -33.5t-3 -42.5t-1.5 -35q-14 -63 -14 -86q0 -10 3.5 -32 t3.5 -34q0 -7 -4.5 -23t-4.5 -25l2 -19q0 -4 7 -26t7 -25q12 -72 12 -76q0 -2 3.5 -15.5t5.5 -19.5t7.5 -15t12.5 -12q30 -9 48 -21h42h42q7 4 29 18t38 20t35 6q22 0 22 -37v-14q0 -39 -25.5 -68.5t-64.5 -45.5t-78 -23.5t-74 -7.5q-80 0 -113 23l-26 26q-66 77 -83 117z " />
<glyph unicode="u" horiz-adv-x="989" d="M142 180v92q0 48 4 142t4 141q0 10 -0.5 30t-1 36t-0.5 17l-13 35v104q0 6 -14 9t-28 16.5t-14 43.5v21q1 12 40 17t62 5q9 0 9 -3q66 -4 112 -19q15 -6 25 -33.5t10 -46.5q0 -43 -16 -130l-3 -13q-3 -12 -3 -13q0 -3 3 -25.5t3 -24.5q2 -3 2 -110q0 -96 -2 -113 q0 -1 -9 -19t-10 -21v-14q0 -13 0.5 -23.5t3.5 -20t4.5 -15.5t8 -13.5t8 -10.5t11.5 -10.5t12.5 -9t16.5 -10.5l17 -11t13.5 -10l16.5 -12.5t15.5 -8.5t16.5 -4q16 0 45 6t45 6q7 0 20 -3t20 -3q9 0 13.5 12t8.5 29t9 23l9 9l17 15.5t9 9.5q6 30 6 62q10 35 14 63v1v6l-2 13 q-3 12 -3 14v7q0 25 2.5 76t2.5 75q0 13 -7 42.5t-7 41.5q0 10 4.5 27t4.5 25q0 25 -11.5 50.5t-31.5 38.5q-5 3 -34 12.5t-47 22t-18 30.5v11q36 44 73 48q1 0 9.5 -3.5t9.5 -3.5q72 -8 140 -8q11 0 31.5 0.5t29.5 0.5q43 -25 43 -50v-138q-11 -20 -11 -54q0 -7 1 -21 t1 -20v-9q0 -2 -3.5 -17t-3.5 -18v-34q0 -2 -6 -27t-6 -29v-7q0 -6 3.5 -18.5t3.5 -19.5v-12q-7 -10 -7 -12q-8 -31 -8 -67q0 -19 4.5 -61t3.5 -67q4 -5 24.5 -24.5t22.5 -22.5q2 -1 15 -8t14 -8q21 -12 21 -50q0 -17 -26.5 -35.5t-50.5 -28t-48 -17.5q-3 0 -18 -7t-16 -7 q-54 -9 -69 -9q-14 0 -23 9l-47 99q-7 12 -22 12t-23 -22t-12 -25q-14 -18 -34 -38q-32 -16 -35 -19l-7 -7q-12 -8 -25 -10t-31 -2.5t-27 -1.5q-3 0 -18 -3.5t-16 -3.5h-35q-23 0 -45 9t-35.5 18t-38.5 29q-19 15 -41.5 57t-34.5 76z" />
<glyph unicode="v" horiz-adv-x="902" d="M-24 851q0 9 18 22t29 16h17h40q1 0 10.5 2.5t10.5 2.5q5 4 7 4l7 -4l7 -2q6 -3 8 -3h61q3 0 25 -3.5t23 -3.5h104q29 0 29 -39q0 -19 -9 -26.5t-19.5 -6.5t-19.5 -4.5t-9 -20.5q0 -26 17 -77t18 -56q1 -2 4 -25.5t3 -29.5q1 -1 10.5 -13t10.5 -13q7 -12 7 -16 q0 -2 0.5 -11t0.5 -16v-16l-1 -10q9 -21 19 -50t18.5 -46.5t24.5 -35.5q9 -8 41 -8q26 0 42 18t21 44q3 6 15 59.5t14 59.5q1 3 14 27t14 27q0 2 4 18l3 16q2 10 11 40t9 45v5q-6 14 -27 35q-10 9 -36 19t-41 23t-15 36t20.5 43.5t43.5 20.5q14 0 43.5 -4.5t46.5 -4.5 q31 0 88 5q2 2 12 5t11 4h21q83 0 103 -43v-11q0 -15 -5.5 -24.5t-10.5 -13t-19 -10t-20 -10.5q-10 -6 -21.5 -25t-13.5 -22q-3 -4 -19 -20t-22 -30q-1 -1 -7.5 -20t-8.5 -22q0 -1 -2.5 -6.5l-5.5 -12t-4 -8.5q-3 -7 -6 -20t-8 -22l-16.5 -21.5t-16 -21.5t-12 -21t-10.5 -26 q-1 -1 -4 -16t-3 -19q-6 -25 -31.5 -65.5t-30.5 -51.5q-14 -29 -34 -83.5t-29 -75.5l-11.5 -18t-10.5 -17q-15 -27 -19 -57v-9v-26q-16 -34 -23 -46q-8 -28 -27 -28q-18 0 -49.5 46t-38.5 72q-14 34 -28 83q-7 5 -7 41q-12 24 -16 28q-1 4 -9.5 30.5t-9.5 31.5 q-6 17 -19.5 62t-23.5 70q-9 30 -14 34l-7 14.5t-7 15.5q0 21 -6 39q0 7 -14 30l-7 6l-13.5 13t-7.5 8q-7 7 -21 42q0 1 -10.5 13t-10.5 15q-1 3 -1 10q0 3 0.5 11.5t0.5 12.5q0 14 -5 19q-1 1 -3.5 2t-5 2.5t-4.5 2.5t-2 2l-35 35q-6 5 -35 18.5t-49 28.5t-20 32z" />
<glyph unicode="w" horiz-adv-x="1306" d="M396 16q-7 9 -25.5 46.5t-22.5 49.5q-3 3 -8.5 27t-5.5 29q-5 18 -13.5 37l-20 43.5t-16.5 36.5q0 1 -6 14t-6 14q-7 17 -7 49q-4 12 -21.5 41.5t-22.5 41.5q-6 17 -19 60t-22 66q-12 27 -49 81q0 9 -7 16q0 2 -5.5 17t-7.5 17l-6 7q-17 11 -40.5 38.5t-36.5 37.5 q-32 21 -38 35q-4 9 -4 19q0 12 5.5 20t17.5 11t18 3.5t21 1.5q32 7 70 7q6 2 8 2l5 -2q3 0 25 -7t24 -7q7 0 54.5 -6t56.5 -6q36 -10 36 -48q0 -15 -7 -42t-7 -41q0 -34 7.5 -62.5t20.5 -62t19 -57.5q0 -3 4 -24t4 -24q1 -3 13 -33t15 -38q2 -2 8 -14.5l12 -25.5t6 -14 q2 -3 5 -15.5t4 -13.5q24 -61 48 -104q1 0 9 -1l8 -1q42 0 52 31q12 19 28 82q57 38 57 164v2q-7 40 -7 64q-1 1 -10.5 23t-11.5 25q-1 3 -7 55t-21 70q-8 8 -28 14q-11 3 -27 6.5t-24 6t-17 8t-12.5 16t-3.5 27.5v7q0 15 8 20q43 19 49 19h10q10 0 29.5 -6t31.5 -6h157 q12 0 43 -22q22 -22 19 -28q-2 -9 -15.5 -14t-25.5 -17t-12 -38q0 -73 19 -118q5 -8 19 -36.5t15 -34.5q2 -1 2 -12q0 -6 -0.5 -14.5t-0.5 -14.5l-1 -5q2 -8 11.5 -26t11.5 -25q8 -22 8 -60q0 -6 -0.5 -18t-0.5 -18q6 -8 29 -51.5t49 -59.5h1q17 0 33 21q7 10 8 28t4 27 q0 2 7 11t7 10q10 22 23 65t20 61q0 1 6 10.5t6 10.5q23 39 23 86v11q0 2 -3.5 10t-3.5 10q-2 7 -2 49q0 40 2 48q-7 16 -49.5 55t-42.5 65v5q7 14 20.5 20.5t23.5 7.5t29 1q20 0 59.5 -4t58.5 -4q5 0 19 1h14l16 6q16 6 18 6h9q18 0 39 -14t21 -31v-1q0 -1 -2.5 -10t-3 -11 t-3 -10l-3.5 -11t-3.5 -9.5t-5 -10t-5.5 -8.5t-7 -8.5t-8 -6.5q-22 -11 -37 -21q-2 -5 -34 -41q-5 -7 -7 -15t-3 -19t-2 -15l-9.5 -29l-11.5 -36t-9 -25q0 -3 -6 -15l-6 -12q-2 -4 -6.5 -21t-9 -37.5t-6.5 -26.5v-14q-24 -75 -75 -138q-2 -1 -8 -7.5t-7 -6.5q0 -1 -6 -20.5 t-8 -21.5l-5 -14q-2 -1 -12 -10l-11 -10q0 -1 -3.5 -13t-3.5 -15q-28 -147 -100 -147q-19 0 -32.5 4.5t-22.5 17t-12.5 19.5t-10.5 29t-9 29l-7 12q-6 12 -6 13q-6 15 -10.5 48t-5.5 37q-6 62 -47 125h-17q-16 0 -24 -6.5t-15 -24t-13 -25.5l-10 -10l-16.5 -16t-7.5 -8 q-1 0 -2.5 -2.5t-3.5 -6.5t-3 -5q-4 -10 -19 -62q-8 -19 -23 -85q0 -2 -10.5 -29.5t-16.5 -39.5q-17 -35 -50 -35q-49 0 -68 30z" />
<glyph unicode="x" horiz-adv-x="1006" d="M860 0h-158q-10 7 -27 7q-6 1 -33.5 6l-53 9.5t-33.5 5.5q-12 20 -12 22q17 36 17 66q0 27 -17 66l-5 8q-6 7 -13.5 17.5t-10.5 15.5q-3 3 -21 12q-2 4 -8 22.5t-14 29.5t-21 11q-18 0 -31.5 -10.5t-19 -21.5t-13.5 -31.5t-11 -26.5q-1 -3 -14 -21.5t-13 -20.5v-15 q0 -35 14 -49t31.5 -12t31.5 -3t14 -25q0 -41 -91 -41q-14 -2 -94 -2q-78 0 -92 2q-15 -5 -38 -5q-3 -4 -5 -4q-16 0 -25 12t-9 28q0 15 6.5 27t13 17.5t21.5 15l21 13.5l9 9q8 9 15.5 16.5t9.5 8.5q3 4 24.5 21.5t26.5 20.5q2 3 10 12t9 10q4 5 10.5 16t16.5 19 q5 1 19.5 9.5t15.5 11.5q4 1 14.5 14t13.5 20q29 40 29 49v90q-10 7 -40 36t-38 40q0 1 -6.5 13.5t-7.5 13.5q0 1 -13 13.5t-14 14.5q-16 25 -19 35q-3 2 -22.5 20.5l-21.5 20.5q0 1 -6 11t-7 12q-15 12 -52 24.5t-59.5 29.5t-22.5 49q0 13 2.5 21t10.5 11.5t13 5t19 2 t19 0.5q1 0 13.5 3.5t14.5 3.5h16q21 0 62 -3.5t60 -3.5q17 0 45 3.5t42 3.5q33 0 66 -21l1 -3l-1 -4q0 -2 -7 -20t-7 -21v-10q0 -5 21 -43.5t27 -43.5q0 -6 -1.5 -19.5t-1.5 -20.5q0 -45 36 -45q28 0 57.5 41t29.5 70q0 19 -4.5 25.5t-17 9t-20.5 8.5q-43 32 -43 56 q0 9 2.5 12.5t12.5 7.5q49 25 142 25h37q46 0 69 3q1 0 15 3.5t26.5 7t15.5 5.5h16q14 0 34 -13.5t26 -16.5q2 -1 10.5 -2t15 -4t9.5 -8l8 -20l-50 -75q0 -4 -14 -8q-5 -2 -40 -11t-38 -10q-3 -2 -20 -17t-19 -18q-2 -1 -17.5 -10.5t-17.5 -10.5q-3 -1 -18 -17t-17 -17 q-1 0 -6.5 -3.5t-11 -6.5t-10.5 -7t-6 -6q-3 -1 -12 -15t-11 -19q-3 -5 -13 -19t-15.5 -25.5t-5.5 -24.5q0 -21 8 -37t28.5 -38t25.5 -29q3 -1 12 -15.5t11 -19.5q3 -3 10.5 -13.5t8.5 -14.5q4 -2 22 -19.5t21 -21.5q7 -8 18 -30.5t23 -31.5q1 0 5.5 -2.5t9.5 -6t6 -3.5 q4 -5 24.5 -23t24.5 -19q17 -13 53.5 -37.5t56.5 -40.5q10 -7 12 -10t2 -14q0 -20 -25.5 -36t-47.5 -16q-24 0 -39 7z" />
<glyph unicode="y" horiz-adv-x="972" d="M84 -412q0 53 18.5 77t67.5 24h16q26 0 38 -7q7 -4 17 -11t15 -9.5t14.5 -5t22.5 -2.5q21 0 46 21t30 41q5 12 5 57q7 7 7 19q19 19 23 21q2 4 8.5 14l12.5 18.5t6 9.5v27q0 4 6 46t6 46l4 7q0 19 -7.5 35t-22 34t-20.5 28q-7 7 -7 21q-1 2 -4 19t-6.5 32.5t-5.5 17.5 q-5 17 -26 47t-27 44q-1 1 -4.5 13t-4.5 13q-3 13 -9 26.5t-10.5 21t-14 22l-13.5 20.5q-14 19 -22 44q0 3 -2.5 14t-4.5 12q-1 3 -14 22t-14 21q-11 17 -15.5 30.5t-8.5 29.5t-10 30q-6 17 -15.5 32.5t-17 25l-22 27l-22.5 27.5q-1 1 -7 14t-6 14q-9 12 -30 26.5t-34.5 29 t-13.5 34.5q0 38 14 55h46q15 0 44 -3.5t45 -3.5q27 0 80 3.5t79 3.5q35 0 63 -14t28 -45q0 -19 -4 -25t-13 -6h-17q-11 0 -16 -1q-36 -10 -36 -108q0 -7 9 -31q1 -5 6 -18.5l9 -24.5t4 -12q0 -2 12 -29t15 -35q4 -2 7 -12q34 -34 43 -49q6 -10 22 -50t20 -55q16 -19 38 -19 q38 0 81 27q2 9 12.5 41.5t15.5 41.5q0 3 8.5 20t10.5 20q1 2 4.5 12.5l7 20t4.5 10.5q1 2 10 16.5t9 22.5q0 6 -3.5 17t-3.5 17q0 18 7.5 53.5t7.5 53.5q0 22 -6.5 28t-22.5 7.5t-26 8.5q-3 0 -16.5 10.5t-18.5 15.5l-7.5 7.5t-8.5 8t-6.5 7.5t-5 10t-1.5 10 q0 21 25.5 30.5t50.5 10.5q8 0 80.5 3.5t80.5 3.5q1 0 16.5 2.5t18.5 2.5l7 1q7 1 15 2t12 1q5 0 19.5 -2t15.5 -2h24q34 0 54 -12l5 -7v-50q-4 -3 -5 -5q-28 -22 -51 -35q-10 -6 -13 -6q-50 -21 -63 -35l-55 -62q-2 -4 -7.5 -36t-6.5 -34q-8 -19 -15 -29q0 -1 -3 -17 t-3 -18q-4 -11 -17 -30.5t-17 -31.5q-45 -108 -57 -147q0 -1 -3.5 -13.5t-3.5 -14.5q-2 -5 -7 -40.5t-5 -42.5q-5 -21 -22 -61t-22 -56q-2 -8 -8 -36.5t-11 -39.5l-11.5 -18t-10.5 -17q-13 -24 -28 -92v-12l-6 -12.5t-9 -20t-4 -10.5q-2 -1 -8 -19t-7 -23q-1 0 -11 -9 t-12 -10q0 -38 -5 -50q-12 -62 -30 -84q-26 -31 -45.5 -51t-48.5 -44.5t-60.5 -36.5t-64.5 -12q-64 0 -113 55q-27 34 -27 35v10z" />
<glyph unicode="z" horiz-adv-x="888" d="M95 35q0 24 16 52.5t42.5 61.5t33.5 45q2 3 17.5 30.5t25.5 38.5q2 4 16.5 19t18.5 16q10 13 15.5 36t11.5 33q4 10 26 43q0 1 3.5 11.5t7 19.5t5.5 11q8 23 36 62t33 48q0 1 2.5 10t2.5 11q2 3 5.5 15.5t7 26.5t3.5 15q1 2 13.5 20.5t13.5 21.5q14 22 14 77 q0 22 -11 28.5t-39 6.5l-26 -3q-13 -1 -68.5 -10t-62.5 -9q-24 -4 -57 -21q-13 -8 -33 -29.5t-39.5 -35t-42.5 -13.5q-18 0 -31.5 23.5t-13.5 42.5q0 11 4.5 23.5t12.5 28.5l11 22q7 14 7 28v34q1 10 14 22t14 13q2 3 10.5 20.5t11.5 20.5h2q21 0 52.5 -32.5t54.5 -36.5 q3 0 24.5 -3.5t24.5 -3.5h159q17 0 49 -7.5t49 -7.5q12 0 32 7.5t31 7.5h58h38l23 -20v-23v-22q0 -14 -7 -25q-1 -1 -10.5 -13.5t-11.5 -15.5q-6 -9 -12.5 -36.5t-15.5 -37.5q-2 -4 -21 -23q-5 -10 -7 -12q0 -3 -3 -12t-4 -10q0 -1 -13 -13.5t-14 -14.5q-2 -2 -8 -13.5 t-6 -12.5q-41 -73 -90 -140q-1 -1 -7.5 -10t-6.5 -11q-1 -1 -7 -14t-7 -14q-2 -2 -12.5 -13.5t-19.5 -22.5t-9 -14q-15 -23 -31 -77.5t-20 -65.5q-3 -10 -18.5 -27t-15.5 -31q0 -17 27.5 -31.5t48.5 -14.5h21q2 0 10.5 1.5t16.5 2.5l7 1q6 0 27.5 -1t47 -2.5t33.5 -1.5 l12 -3q12 -4 14 -4q27 0 43 7q6 1 9.5 3.5t8 7.5t8.5 8q25 16 27 21q14 11 27.5 36t28.5 40t41 15q50 0 50 -27v-7q0 -8 -1.5 -24.5t-3 -30t-1.5 -15.5q-1 -1 -4.5 -7.5t-4.5 -7.5l-7 -19v-36q-4 -18 -15.5 -29t-33.5 -15t-33 -4.5t-34 -0.5h-43q-7 7 -23 7h-10 q-18 0 -52 -3.5t-50 -3.5h-4q-3 0 -18 3.5t-16 3.5h-114h-116q-5 0 -38.5 -3.5t-36.5 -3.5h-8q-72 0 -90 35q-2 5 -2 7z" />
<glyph unicode="{" horiz-adv-x="851" d="M436 -119q0 59 2 59l92 201v16q0 46 -13.5 86t-33 69t-54 55.5t-63.5 43.5t-76 35t-77 27.5l-78 24.5q-29 9 -43 13q-19 8 -24 17.5t-5 27.5q0 9 3 17t6 12.5t12.5 10.5t12.5 7.5t17.5 7.5t16.5 7q117 39 121 41q18 7 79.5 37t80.5 41q48 36 65 53q7 8 11 20t4 20.5 t-0.5 24.5t-0.5 19q0 94 -14 143q-8 27 -26.5 68t-29.5 77t-11 78q0 117 85 213.5t197 96.5q46 0 88.5 -17.5t42.5 -56.5q0 -42 -20 -65t-49.5 -27t-64.5 -8t-64.5 -9.5t-49.5 -31.5t-20 -72q0 -51 19 -108.5t42.5 -100.5t42.5 -99t19 -104q0 -32 -10.5 -60t-25.5 -49 t-41.5 -41.5t-48 -33.5t-57 -28t-56 -22.5t-57.5 -20t-50 -17.5q-20 -7 -27 -14q-2 0 -2 -7q0 -8 40 -22.5t96.5 -38.5t113.5 -58t97 -92t40 -129q0 -108 -14 -145q-12 -30 -42 -81.5t-47.5 -95t-17.5 -87.5q0 -48 19 -76t47 -35.5t61 -12t61 -7.5t47 -21.5t19 -54.5 q0 -34 -26 -60t-62 -26q-64 0 -166 66q-79 56 -106 123.5t-27 175.5z" />
<glyph unicode="|" horiz-adv-x="498" d="M208 -427v62q0 165 -10 308q-1 17 -6.5 62.5t-5.5 74.5l17 45q0 9 -8.5 27t-8.5 33q6 77 6 161q0 64 -5 114v102q-17 69 -17 137q0 84 16 154q-13 34 -14 40l14 50q0 6 -7 26.5t-7 33.5l7 116l-16 343q0 36 23 40q32 5 45 5q14 0 53 -14q0 -2 2.5 -20.5t2.5 -24.5 q5 0 9 -31v-21l10 -47l-26 -138l16 -123l-9 -45q12 -40 12 -47q0 -23 -12 -38q12 -14 21 -81.5t9 -101.5l-21 -142q0 -17 10.5 -55.5t10.5 -53.5q0 -22 -10.5 -67.5t-10.5 -63.5q0 -19 8 -60.5t8 -62.5l-6 -38v-55t-0.5 -26t-0.5 -7q6 -10 20 -81t14 -89l-15 -59 q0 -13 3.5 -27t3.5 -19l-21 -142q0 -18 6.5 -50t7.5 -52q-11 -3 -11 -18v-3q0 -13 -1.5 -21t-6.5 -19.5t-18 -17.5t-34 -6q-19 0 -29 5.5t-18 27.5z" />
<glyph unicode="}" horiz-adv-x="864" d="M26 -445q0 45 29 68.5t70 30l82.5 12.5t70.5 27t29 62l-2 13q-14 70 -53 200q-8 25 -27 64t-30 72.5t-11 70.5q0 63 44.5 125.5t103.5 91.5q25 13 110 31.5t117 48.5q-13 19 -38 31t-60.5 22t-48.5 15q-105 42 -179.5 114t-74.5 170q0 48 21.5 105.5t47 103t47 105.5 t21.5 112q0 4 -1 23.5t-1 23.5q-16 26 -48.5 37t-67 12.5t-67 6t-53 24.5t-20.5 60q0 44 28.5 58.5t79.5 14.5q98 0 166.5 -53.5t98.5 -133.5t30 -175q0 -51 -14 -81.5t-36 -58t-32 -57.5q-3 -9 -5 -17t-4 -13.5t-2.5 -12.5t-1.5 -10.5t-1 -12.5v-12v-15v-17q0 -42 18 -78.5 t53 -66.5t64 -48.5t74 -44.5q12 -7 18 -10q47 -27 90.5 -37.5t110.5 -15.5q27 -12 27 -47t-27 -53.5t-74.5 -30.5t-58.5 -17q-20 -8 -82 -38.5t-78 -41.5q-42 -22 -81.5 -64t-39.5 -81v-12q18 -114 27 -148q1 -4 10 -21.5l19.5 -37t11.5 -21.5q14 -37 14 -94q0 -5 -1 -22 l-1 -17q-2 -16 -12 -68t-14 -65q-20 -67 -103.5 -120.5t-157.5 -53.5q-40 0 -82.5 16.5t-42.5 51.5z" />
<glyph unicode="~" horiz-adv-x="1120" d="M172 497q0 17 3.5 30t13.5 25.5t15.5 18t24 20l23.5 18.5q1 0 8.5 8.5t8.5 8.5q5 4 19.5 13.5l25.5 17t12 7.5h31q5 0 27 4.5t29 7.5q3 0 20 3.5t18 3.5q6 0 44 -7.5t54 -11.5q14 -4 33.5 -16.5t49.5 -12.5q106 0 217 97h46q11 0 11 -31v-6q0 -22 -11 -50 q-24 -67 -54 -90t-108 -45q-17 -4 -36 -12t-36 -12.5t-41 -4.5h-52q-19 2 -55 21t-67 19q-78 0 -127 -21q-12 -4 -47.5 -30.5t-61.5 -26.5q-15 0 -26.5 18.5t-11.5 35.5z" />
<glyph unicode="&#xa1;" horiz-adv-x="603" d="M398 886v-2q-1 -1 -6.5 -13.5t-7.5 -14.5v-41q0 -24 6.5 -67t7.5 -65v-95q0 -4 7 -42t7 -43v-8q0 -8 -3.5 -21.5t-3.5 -20.5v-3q0 -10 2 -30l3.5 -36t1.5 -17q0 -2 3.5 -14.5t3.5 -13.5v-3v-4q0 -2 -3.5 -20.5t-3.5 -19.5v-161q-5 -43 -41 -90.5t-77 -47.5q-54 0 -104 69 q-1 3 -4 9.5l-5.5 12t-2.5 6.5v12v29q0 1 -3.5 11t-3.5 12q-2 9 -2 12q0 1 1 8t1 8q0 12 6 79t8 78v54q0 3 6 15.5t6 13.5l9 49q0 18 3.5 62.5t3.5 70.5q0 13 -4.5 40.5t-4.5 42.5q0 33 2 40q11 11 18.5 32t7.5 35q0 2 -3.5 21t-3.5 22q0 5 7 40q0 1 3.5 10t3.5 11q2 8 6 27 t7.5 29.5t10 23.5t18 19t27.5 6q29 0 59.5 -42t30.5 -75zM370 1560q12 -7 28 -27q0 -1 3.5 -10.5t3.5 -10.5q4 -11 19 -22t15 -18v-8q0 -8 -2 -28l-3.5 -36t-1.5 -18q-1 -7 -3.5 -14t-7.5 -13.5t-9.5 -11t-12.5 -11t-12 -9.5l-13 -9.5t-11 -7.5q-5 -2 -38 -2 q-52 0 -99.5 18.5t-69.5 59.5v35q0 60 6 74q2 0 44 49q28 34 50 34h3q2 0 15 -3.5t15 -3.5q3 0 22.5 -2t36.5 -3.5t22 -1.5z" />
<glyph unicode="&#xa2;" horiz-adv-x="1077" d="M287 -230l-64 59q26 52 58 124q4 8 6.5 18t4 18t2.5 9q1 16 15 28t14 22q0 29 -22.5 57t-59.5 59t-48 44q-2 36 -27 113.5t-25 117.5q0 13 11 16q1 16 1 54q0 35 1 55t9 50t23 52l101 118q16 48 61.5 74.5t97.5 36.5t102 22.5t83 48t33 98.5v14l17 17l52 116q3 7 12 7 q83 0 83 -57v-24l-76 -196q0 -5 42 -36t84 -79.5t42 -95.5q0 -15 -22 -41t-34 -30q-32 -12 -60 -12q-18 0 -28.5 4.5t-14.5 15t-5 19t-1 25.5q0 15 -1 23.5t-5 20.5t-14.5 19.5t-27.5 12.5q-57 -117 -90 -226v-30q-1 -2 -3 -8l-3.5 -10.5t-2.5 -5.5q-46 -76 -71 -140 t-25 -133q0 -22 10 -35.5t30 -19t35 -7t37 -1.5h35l5 12l111 61q7 3 17 22l100 78q12 11 28 11q21 0 33 -13t12 -34q0 -20 -33.5 -57.5t-39.5 -58.5l-59 -52.5t-56 -48.5t-52 -30.5t-79 -27.5q-4 -1 -37 -12t-46 -12q-15 0 -39 8.5t-37 8.5q-33 0 -62.5 -33.5t-35.5 -65.5 v-45q-10 -26 -42 -69t-53 -43h-7zM358 337q10 -5 24 -5q24 0 35 11.5t11 26t6.5 29.5t21.5 20q12 19 12 74q29 57 59.5 138.5t30.5 119.5q0 15 -48 15h-28q-80 0 -119.5 -63.5t-39.5 -150.5q0 -14 8.5 -35t8.5 -33l-12 -50q0 -15 4 -29.5t13.5 -37.5z" />
<glyph unicode="&#xa3;" horiz-adv-x="1418" d="M497 249v33q0 2 -5 6t-7 4q-5 2 -28.5 7.5t-26.5 6.5h-134q-22 6 -28 15t-6 32v17q0 22 12 33q3 3 43 35q60 14 133 22h26h9q1 0 45 33q21 17 21 21l31 61.5t26 50.5q8 36 21 88l9 18.5l15.5 32t7.5 17.5q3 8 29 83t29 83q2 8 22 35q13 27 34 84t33 82q1 3 11 18t10 16 q12 18 12 23q1 2 5.5 27t5.5 26q3 5 33.5 34.5t33.5 33.5q13 33 23 45q0 1 7.5 8.5l15.5 15.5l10 10q2 1 10.5 20.5t9.5 23.5q35 32 90 90l5 2q6 3 10.5 5t5.5 3q2 0 7.5 5t6.5 5q19 16 59 39.5t64 42.5q54 19 109 19q42 0 112 -11q49 -32 66 -46q4 0 10 -11l57 -65v-23 q0 -48 -10 -78q-8 -17 -66 -36t-81 -19q-33 0 -77 37.5t-67 40.5h-8q-9 0 -19 0.5t-14 0.5t-12.5 -0.5t-16.5 -0.5h-7q-3 0 -17 -10t-16 -13q-49 -29 -111 -131q-65 -121 -66 -125q-12 -22 -16 -59.5t-8 -52.5q0 -3 -10 -21t-13 -22q0 -1 -4.5 -27t-5.5 -29l-6 -8 q-5 -9 -10 -16t-6 -9q-15 -26 -26 -54.5t-22.5 -64.5t-19.5 -57q-1 -4 -12.5 -35t-14 -38.5t-10.5 -33.5t-10 -39.5l-5 -35t-3 -40.5v-12q0 -22 12 -24h66q30 0 75 6t73 6q31 0 64 -14t33 -41q0 -33 -55 -80q-48 4 -71 4q-90 0 -220 -25q-8 -7 -33.5 -33t-31.5 -34 q-4 -5 -30 -56.5l-28 -55.5q-1 -2 -16 -22t-16 -22t-5.5 -16.5t-5.5 -16.5q-2 -8 -26.5 -54.5t-30.5 -55.5q-1 -6 -15 -40t-16 -38q-3 -7 -12.5 -26l-10.5 -21q-4 -5 -17 -16t-21 -21.5t-8 -22.5q0 -6 3 -6q35 -49 87 -55h57h21q77 0 90 -33q102 -12 122 -12h38 q102 0 157.5 23.5t93.5 99.5q12 23 12 67v16q0 16 -3 31.5t-6 25.5t-11.5 25t-12.5 21t-17 23.5t-17 23.5q-10 13 -27.5 39.5t-17.5 28.5q-2 15 -2 19q0 14 1 20.5t6.5 12t16.5 5.5l11 -3q11 -4 67 -44q0 -2 12 -10q7 -11 47.5 -66t41.5 -57q0 -5 3.5 -34t3.5 -35 q0 -10 1.5 -38t1.5 -30q-1 -12 -6 -37.5t-10.5 -47.5t-5.5 -24q-3 -5 -30.5 -36.5t-35.5 -39.5q-3 -3 -12.5 -17.5t-10.5 -16.5q-1 -4 -11 -22.5t-13 -21.5q-1 -2 -15.5 -6.5t-15.5 -5.5q-11 -2 -66 -33q-3 0 -16.5 -2.5l-26 -5t-14.5 -2.5q-1 -1 -10.5 -6.5t-11.5 -7.5 q-1 0 -25.5 1t-38.5 1q-21 0 -25 -2q-3 0 -22 -5t-21 -5q-4 1 -24 12t-23 12h-46h-19q-20 5 -127 41.5t-171 36.5l-24 -2q-3 0 -12 -14t-12 -19q-70 -100 -161 -100h-26q-32 14 -47 22q-8 6 -20.5 19t-12.5 16q-8 30 -8 57t8 54l33 33q5 3 22 14.5t30 19.5t16 9 q5 3 42.5 7.5t47.5 4.5q1 1 10 5.5t10 4.5q2 2 27.5 12t28.5 13l2 4q3 4 5.5 9t4.5 7q4 11 29 71.5t37 94.5q7 21 16.5 62.5t15.5 60.5q3 9 15.5 40.5t17 45t9.5 37.5t5 45z" />
<glyph unicode="&#xa4;" horiz-adv-x="1037" d="M115 339q0 20 42.5 73t64.5 65v13l2 10q3 11 3 14q-2 13 -22.5 62.5t-20.5 84.5v66q11 9 29 60.5t18 68.5q0 12 -16.5 31t-37.5 38t-26 26q-5 3 -26.5 28.5t-25.5 32.5q6 29 30.5 45t52.5 16q14 0 30.5 -14.5t30.5 -15.5q36 -88 90 -88h12q6 3 30.5 14t38 16.5t35 13.5 t40.5 11.5t36 3.5h14q10 0 12 -2q7 -11 70 -31.5t84 -20.5q16 0 29.5 9t27 24t19.5 19l71 64h29q4 0 17.5 -15.5t17.5 -24.5v-13q1 -13 1 -16l-1 -30q-4 -10 -26.5 -20t-27.5 -14q-8 -6 -33 -39t-27 -42v-2q0 -20 30 -70t30 -79l-10 -92q-2 0 -6.5 -13.5t-9 -31t-5.5 -19.5 q-5 -3 -9.5 -7t-6.5 -6t-3 -2q-7 -6 -7 -18q0 -11 2.5 -25.5t6.5 -25t8 -9.5l30 -12q26 -18 65 -95q7 -8 7 -14q0 -18 -21 -38.5t-39 -20.5q-42 15 -42 17l-97 92q-17 7 -22 7h-2q-22 -3 -76.5 -28.5t-94.5 -25.5q-10 0 -16 11h-12q-73 0 -138 29q-13 5 -19 13t-16 8 q-8 0 -26 -19t-37.5 -42.5t-47.5 -42.5t-55 -19q-20 4 -34 20t-14 37zM350 517l43 -8l23 -25q62 -17 85 -22h20q131 0 189 111q2 4 20 29.5l23 32.5l-9 43l9 36v13q-13 33 -43 71t-38 51l-7 7q-19 3 -35.5 11t-38 20.5t-40.5 20.5q-18 -3 -158 -31q-6 -5 -25.5 -29 t-33.5 -31l-48 -106v-86q10 -7 37 -52t27 -56z" />
<glyph unicode="&#xa5;" horiz-adv-x="1374" d="M965 604q0 -17 -33 -31q-33 -9 -71 -9q-7 0 -33.5 1t-49.5 1q3 -27 3 -35q0 -16 -5 -36h64q19 -6 36 -17t24 -17.5t25 -24.5l7 -9q0 -22 -28 -55q-8 -8 -29 -16t-28 -13q-4 0 -16.5 -1l-30 -2.5t-27.5 -2.5q0 -1 0.5 -5.5t0.5 -7.5q0 -7 -4 -19t-4 -20q0 -18 13 -56 t14 -40l63 -64q1 0 9.5 -3t12.5 -3q3 -2 22.5 -4.5t24.5 -2.5q4 -2 32 -10.5t32 -11.5q14 -6 14 -19q0 -9 -2 -9q-8 -37 -31 -49.5t-66 -12.5q-12 0 -36 4.5t-35 4.5l-24 -2q-1 0 -8 -3.5t-8 -3.5t-33 -3.5t-51 -3.5q-14 0 -41 3.5t-41 3.5q-39 0 -116.5 -3.5t-115.5 -3.5 h-45q-16 4 -33 22t-17 35q41 80 85 81h76q20 2 48 17.5t35 33.5q7 12 7 53q-2 18 -2 108q-11 0 -35 2.5t-29 2.5q-27 3 -43.5 9t-24 21.5t-9 23.5t-3.5 35q-1 6 -1 9q0 39 97 44h48q0 4 1 10t1 9q0 2 4 52l-58 -2q-1 1 -9.5 4t-12.5 3l-2 1q-5 0 -5 -1q-5 -2 -19 -2 q-24 0 -41.5 11.5t-17.5 31.5q0 18 14 40q3 5 21 5q7 0 17 -1t12 -1t22 3t21 3q2 0 14 1.5t16 1.5q21 0 31 -2q0 37 -5 59.5t-23 46.5q-3 5 -35.5 43.5t-47.5 53.5q-4 5 -10 11t-10 10.5t-7 12.5q-13 44 -16 51l-12 41q-26 26 -29 28q-2 2 -30.5 44t-32.5 47l-34 35 q-2 2 -7 13.5t-5 14.5q-27 42 -78 88q-7 7 -20 17.5t-15 10.5q-13 5 -45.5 8t-49 13t-16.5 37q0 32 12 40q73 26 85 28h37q37 0 109 -11.5t107 -11.5q17 0 33 9l166 21q21 2 39 -17t18 -40q0 -13 -8.5 -20t-26 -13t-22.5 -9q-1 0 -7 -2.5t-7 -2.5q-4 -2 -32.5 -4t-31.5 -3 q-8 -4 -28 -28v-39q0 -11 1 -21t5 -22t5.5 -17.5t8.5 -19.5t8.5 -16.5t11 -19.5t10.5 -18q1 -2 2.5 -5.5t3 -6t1.5 -3.5q6 -6 6 -28q23 -23 43 -48q20 -26 26 -42q6 -2 8 -8q4 -1 21.5 -16t20.5 -19l48 -47h35q13 14 48.5 43t48.5 47l21 42q7 10 25 22t25 19l2 5q2 4 3.5 14 t1.5 23q2 14 12.5 23.5t21 14.5t19.5 19.5t9 37.5q0 39 -16 54.5t-50.5 24t-52.5 20.5l-28 22l7 62q23 17 57 25.5t53 9t63 0.5q14 0 36 -3.5t35 -3.5q27 0 81 11.5t81 11.5q35 0 54 -7t42 -32q3 -10 6 -12q0 -45 -15 -62q-5 -7 -18.5 -20t-16.5 -15q-1 -2 -19 -7.5 t-22 -5.5q-65 -31 -82 -56q-2 -2 -8 -15t-7 -14q-5 -5 -7 -5q-1 -2 -11 -9l-10 -7q-31 -31 -41 -48q-5 -3 -19.5 -17t-15.5 -18l-5 -8q-4 -7 -12.5 -18.5t-17.5 -21.5q-1 0 -22 -14q-1 -1 -6 -17.5t-6 -17.5q-6 -11 -25.5 -23.5t-24.5 -17.5q0 -1 -2.5 -5.5t-6 -9.5t-3.5 -6 l-28.5 -28t-28.5 -29q-9 -8 -16 -31.5t-12 -30.5q-7 -11 -30.5 -35t-30.5 -42q-1 -10 -1 -60q14 3 43.5 7t32.5 5h19q97 0 97 -69z" />
<glyph unicode="&#xa6;" horiz-adv-x="566" d="M177 971l3 10q0 13 -8.5 41t-8.5 40q0 15 8.5 43t8.5 44q0 9 -7 34q-10 17 -10 42t10.5 75t10.5 79v22q38 44 84 44q52 0 87.5 -31t35.5 -82l-7 -54q0 -31 4 -51q3 -24 3 -54v-33q0 -31 -7 -41q-7 -25 -7 -70q0 -48 7 -72q12 -19 12 -47q0 -39 -15 -76.5t-49 -37.5 q-70 0 -122 32.5t-52 100.5q1 4 10 22t9 20zM177 -144l3 14q0 14 -8.5 40.5t-8.5 35.5q0 15 8.5 44t8.5 45q0 17 -7 34q-10 20 -10 43q0 25 10.5 76.5t10.5 79.5v17q39 49 84 49q52 0 87.5 -33.5t35.5 -84.5q0 -6 -3.5 -24t-3.5 -28q0 -31 4 -46q3 -28 3 -56v-33 q0 -31 -7 -41q-7 -24 -7 -73q0 -45 7 -71q12 -20 12 -48q0 -38 -15 -74.5t-49 -36.5q-70 0 -122 32t-52 98v3q0 2 9.5 19t9.5 19z" />
<glyph unicode="&#xa7;" horiz-adv-x="822" d="M136 901q0 -8 1 -22.5t1 -26.5l1 -13q2 -10 18.5 -55.5t25.5 -63.5q1 -7 9.5 -24.5t18.5 -36t11 -21.5q17 -21 30 -29q36 -47 69 -97q3 -7 5 -7q5 -2 19.5 -13t15.5 -15q4 -4 21 -24l35 -41.5t20 -23.5q5 -4 78 -77q3 -3 24.5 -32t38.5 -46.5t28 -17.5q26 0 26 34 q0 78 -26.5 164t-71.5 149q-23 23 -28 35l-29.5 41.5l-35 49t-32.5 40.5q-11 13 -36.5 32.5t-39.5 37.5q-12 14 -40.5 69t-59 90.5t-66.5 35.5q-18 0 -28 -29q0 -6 -1.5 -32.5t-1.5 -30.5zM126 -327v14l19 43q9 13 43 26.5t52 13.5h3q1 -1 10.5 -7t10.5 -7q8 -3 42.5 -7 t49.5 -14h74q21 16 29 21q49 40 49 83l-2 14q0 1 -3.5 10.5t-3.5 10.5q-23 133 -34 168q-3 11 -16.5 25t-18.5 21q-3 6 -13 31.5t-22 37.5q-7 9 -19.5 22t-21.5 24.5t-14 24.5q-81 99 -131.5 174.5t-89.5 166.5q-5 9 -14 47q-3 10 -18.5 45t-16.5 52v119q0 2 -3.5 24 t-3.5 25v17q0 17 4.5 34.5t12.5 39.5t11 33q0 3 7 42q2 18 6.5 37t12.5 41l13 35l15.5 39.5t14.5 35.5q0 1 4 7l3 5q1 3 14 21.5t14 20.5q11 31 22 43q11 15 20.5 26t24 23.5l20 17l27.5 21.5q7 5 7 9q1 1 19.5 17t20.5 18q4 7 49 41t54 35q58 0 70 7q1 0 16 6t18 6q0 1 5 1 q7 0 7 -1q9 -4 29 -11.5t33 -14t28 -16t22.5 -23t7.5 -30.5q0 -39 -21.5 -72.5t-58.5 -33.5q-44 0 -86 28q-3 1 -18.5 14t-16.5 13q-22 16 -74 16q-40 0 -85 -45l-17.5 -35.5t-18.5 -38.5q-1 -1 -6 -11t-10 -19t-5 -10v-24q0 -24 14 -61q27 -81 34 -88q10 -21 22.5 -36 t31 -32.5t29.5 -30.5l85 -97q5 -17 28 -40t27 -29q24 -38 64.5 -112l53.5 -97q1 -3 14 -21t14 -21l7 -12q0 -4 9.5 -38.5t10.5 -39.5q5 -16 10.5 -46.5t8.5 -43.5q2 -1 5.5 -10.5t7 -20.5t3.5 -12v-2v-3q-3 -24 -8 -80t-8.5 -101t-4.5 -49q0 -11 -7 -35q-4 -8 -21.5 -61.5 t-19.5 -61.5l-21 -84q-14 -46 -50 -95t-60.5 -73.5t-78.5 -74.5q-13 -5 -35.5 -20.5t-33.5 -20.5q0 -1 -9 -4t-10 -5q-5 0 -18 -5t-16 -7h-134q-4 2 -20 8.5t-20.5 9l-16.5 9t-16.5 12t-11 14.5t-9 20t-2.5 24z" />
<glyph unicode="&#xa8;" horiz-adv-x="1076" d="M269 1229l-3 42q0 9 3 23t4 18q9 28 21.5 42t38.5 14q47 0 81.5 -30t34.5 -74q0 -34 -16 -65.5t-45 -31.5q-72 0 -119 62zM632 1226l-5 40q0 7 3.5 22.5t3.5 16.5q10 63 62 63q47 0 81.5 -31.5t34.5 -74.5q0 -35 -17.5 -67t-46.5 -32q-66 0 -116 63z" />
<glyph unicode="&#xa9;" horiz-adv-x="1557" d="M195 362q-32 56 -50.5 93.5t-36 93t-17.5 103.5v42q0 83 3.5 134.5t22 122t54.5 125.5l124 196q67 81 171 140.5t185 59.5l68 -12q29 0 54 12h81q77 0 123.5 -12.5t99.5 -56.5l111 -114l67 -33q29 -20 46 -54.5t21 -66.5t15.5 -69t30.5 -59q16 -18 35.5 -34.5t27.5 -24.5 t15.5 -26t12.5 -47q9 -85 9 -211v-29q-4 -33 -20 -78.5t-35 -77.5q0 -1 -1 -3t-2.5 -4.5t-2.5 -4.5q-13 -58 -39 -134.5t-45 -95.5q-23 -10 -25 -12q-50 -20 -107 -69.5t-81 -62.5q-28 -14 -105 -30t-111 -37h-97q-79 0 -143 12t-107 28.5t-91 52.5t-77.5 64l-86 84.5z M181 787q0 -91 74 -294q31 -61 77 -117t84 -87q9 -6 46.5 -34t58 -41.5t57 -32.5t70.5 -29q80 -22 185 -22q24 0 61 0.5t50 0.5q20 0 83 28l20 12q25 13 27 16q7 3 18.5 9l15.5 8l12.5 6.5t11 6.5l9 7t10 9t10 10.5t12 14t13.5 17.5q16 22 40.5 47.5l39.5 41.5t29 44t19 63 q4 3 9 21.5t7 35.5l3 17q2 8 11 35t11 35l7 28t6 37.5t1 39.5q0 82 -14 132.5t-62 78.5l-15 19q0 37 -4 64.5t-15 50t-20.5 36t-28 36.5t-29.5 38q-47 57 -91 87t-75.5 37t-81.5 24t-98 47l-190 21q-1 0 -26 -10.5t-58.5 -27t-50.5 -28.5q-98 -64 -208 -240.5t-121 -297.5z M606 398q-41 37 -72 74q-19 15 -19 25q-7 12 -22 41t-16 33q0 1 -1.5 20.5t-2.5 43.5t-1 35v44q0 57 29 179q4 13 17.5 29.5t15.5 20.5q8 13 16.5 50t19.5 55q13 23 36 38.5t41.5 21t52.5 13.5q10 2 39.5 10t50 12t40.5 4q17 0 19 -2q1 0 24 -6t24 -6h118q30 -7 49.5 -28 t19.5 -50q0 -42 -12 -131q-10 -64 -69 -64q-21 0 -32 4.5t-24 21.5q-12 17 -31 49.5t-28 43t-33.5 21t-62.5 10.5q-41 0 -61 -24q-36 -43 -55 -76q-5 -6 -7 -13t-2.5 -17.5t-2.5 -17.5q-3 -6 -14.5 -40.5t-11.5 -39.5q-2 -4 -2 -59q0 -52 2 -59q1 -2 3.5 -8.5t5 -14 t3.5 -8.5q0 -3 3 -19t4 -19q9 -30 32 -65t47 -53h19h19q2 0 18 10t19 10q7 4 30.5 6.5t31.5 10.5q1 3 9.5 13l19.5 23t14 16q7 8 20.5 32.5t28.5 39t36 14.5q22 0 33.5 -21.5t11.5 -45.5l-2 -14q0 -2 -1.5 -33.5t-1.5 -35.5q0 -7 -1 -28.5t-2 -26.5t-4.5 -19t-10 -19 t-17.5 -12t-28 -11q-126 -31 -230 -31q-11 0 -21 1t-22.5 4.5t-18.5 4.5t-21.5 7.5l-18 7.5t-21 9.5t-19.5 8.5z" />
<glyph unicode="&#xaa;" horiz-adv-x="790" d="M278 1042q0 -14 11.5 -23.5t24 -12.5t31.5 -6l25 -4q28 0 50.5 25.5t22.5 42.5v95l-4 10l-5 1h-8q-20 0 -40 -12t-39 -28.5t-27 -20.5q-5 -2 -15 -18.5t-10 -20.5q-17 -13 -17 -28zM431 936q-8 0 -15 -5t-16 -15t-11 -12q-7 0 -11 -4q-11 -4 -31.5 -15.5t-37 -18 t-33.5 -6.5q-32 0 -37 7q-8 0 -24.5 4t-21.5 4q-17 12 -37.5 50.5t-20.5 60.5q0 54 42 103.5t93 69.5q6 3 28 20t31 19q2 1 20.5 3t19.5 2l7 5q6 6 7 6q6 2 31.5 14.5t28.5 15.5q20 12 20 62q0 66 -40 117q-2 4 -8 9t-8 5h-42q-3 -3 -18 -13t-18 -17q-27 -52 -31 -69 q-30 -31 -74 -31q-2 0 -15 1t-16 1q-44 29 -44 56q0 21 17.5 47.5t33.5 39.5q7 5 16.5 6t17.5 4l36.5 19t33.5 17q9 3 28 3q8 2 38 12t49 10q91 -16 124 -41q14 -12 19.5 -18.5t10 -17t4.5 -23.5q0 -3 8 -23t8 -23q0 -46 3 -109q0 -3 -4.5 -12t-4.5 -12q-4 -24 -4 -75 q0 -2 -3 -8t-3 -7q-6 -45 -6 -119q2 -3 7 -14l5 -11q7 -16 27.5 -22.5t41.5 -6.5t37.5 -9t16.5 -30q0 -23 -37.5 -57.5t-61.5 -34.5q-9 0 -18 3t-12 3q-39 0 -51 4q-14 5 -47.5 40.5t-47.5 35.5z" />
<glyph unicode="&#xab;" horiz-adv-x="930" d="M298 240h-2q-11 0 -34 31t-26 33l-26 9q-38 20 -79.5 58t-41.5 68q0 35 38.5 67.5t82.5 50.5q19 3 49 39.5t37 36.5q8 10 53.5 49t52.5 39t32 -5.5t28 -11.5q0 -4 -6 -25.5t-7 -28.5q-10 -34 -48 -73t-53 -75q-8 -1 -16 -12.5t-17 -28t-12 -20.5q4 -4 12.5 -18.5 t17 -24.5t14.5 -10q8 -4 25 -30t20 -28l13 -15q17 -17 25 -33l15 -29q10 -19 18.5 -31t12.5 -21v-30q-22 -19 -39 -19h-51q-9 29 -44 52.5t-44 35.5zM635 249h-3q-9 0 -32.5 31t-26.5 33l-26 12q-35 13 -79 53.5t-44 73.5q0 57 113 110q25 7 57.5 44.5t40.5 37.5 q6 8 51.5 47t52.5 39q9 0 32.5 -4.5t26.5 -11.5q0 -3 -12 -51q-12 -36 -47.5 -75t-49.5 -74q-10 0 -19 -12.5t-17 -28.5t-12 -20q2 -3 11.5 -19t17.5 -26t14 -10q9 -3 25.5 -30t19.5 -29q34 -38 38 -52l16 -21q7 -23 17 -35.5t14 -21.5v-29q-22 -17 -40 -17h-50 q-7 21 -23.5 34t-36 25t-29.5 27z" />
<glyph unicode="&#xac;" horiz-adv-x="1254" d="M106 472q0 3 5 8.5t9 7.5q72 55 189 55q4 0 18.5 -1t16.5 -1q1 0 21 -3t22 -3q4 0 24 3t22 3q6 1 23.5 3t30.5 4t14 2h102q1 0 21 2.5t22 2.5t14 2t16 2q27 0 81.5 -4.5t80.5 -4.5q27 0 56 2.5t39 2.5q5 2 99 18h19q97 0 97 -70q0 -43 -16 -50q0 -4 -0.5 -11.5 t-0.5 -12.5q0 -12 1.5 -34t1.5 -32q0 -4 -1 -10.5t-1 -8.5q-1 -10 -1 -29v-33q0 -21 -2 -28q-6 -30 -18.5 -45t-23.5 -15q-17 0 -27 52q-2 8 -2 31q0 22 -2 36q-4 26 -7 69q-1 18 -5 82q-9 0 -31 0.5t-35 0.5l-332 -7q-1 1 -9.5 4t-12.5 3l-2 2q-5 0 -5 -2q-91 -17 -126 -17 q-25 0 -69.5 9.5t-67.5 9.5l-4 -2q-9 0 -25.5 -1.5t-30.5 -3.5l-13 -2q-2 0 -8.5 -7l-14 -15t-8.5 -9q-9 -7 -41 -7q-64 0 -96 38q-7 3 -7 14z" />
<glyph unicode="&#xad;" horiz-adv-x="831" d="M159 452q0 55 97 60h83q9 1 87 4.5t87 4.5h42h40q18 -8 34.5 -23.5t24.5 -26.5l25 -35l7 -12q0 -35 -27 -78q-8 -11 -29.5 -24t-27.5 -18q-8 0 -52.5 -3t-51.5 -3h-11h-8q-5 0 -53 3t-53 3h-60q-6 0 -36 3.5t-37 3.5q-28 4 -44.5 14.5t-23.5 27.5t-9.5 35.5t-3.5 44.5v10 v9z" />
<glyph unicode="&#xae;" horiz-adv-x="1557" d="M195 368q-32 55 -51 93t-36 94.5t-17 105.5v38q0 84 3.5 135.5t22 122.5t54.5 124l124 196q67 81 171 140.5t185 59.5l68 -10q23 0 54 10h81q77 0 123.5 -12.5t99.5 -56.5l111 -112l67 -33q29 -20 46 -55t21 -67t15.5 -69.5t30.5 -59.5q17 -18 36 -34l27 -23t15.5 -25 t12.5 -48q9 -88 9 -212v-28q-10 -81 -55 -158l-1 -2q-1 -1 -2.5 -4t-2.5 -6q-14 -58 -39.5 -134t-44.5 -96q-23 -7 -25 -8q-48 -22 -104.5 -71.5t-83.5 -63.5q-28 -15 -105 -31t-111 -37h-97q-68 0 -123 7t-101 24.5t-79.5 35.5t-72.5 52t-66.5 61l-75 75t-84.5 82zM177 794 q0 -59 15.5 -140t50.5 -154q31 -64 79.5 -119.5t91.5 -86.5q3 -2 20 -15t22.5 -17.5t22 -16.5t25.5 -17.5t25.5 -16.5t28.5 -17l27.5 -14t31 -13.5t31.5 -10.5q71 -23 185 -23q26 0 61.5 1t47.5 1q18 0 39 8t32 14.5l40 24.5q3 2 11 3.5t11 4.5q57 28 70 40q15 13 41 50 q17 22 42 47.5l41 41.5t30 43.5t18 63.5q3 3 7 21.5t6 35.5l3 17q4 11 12.5 36.5t11 35t7 28.5t6 36.5t1.5 40.5q0 85 -13.5 135t-60.5 83q-16 20 -16 34q0 39 -10.5 71t-20 47t-36 47l-37.5 46q-45 60 -88 90t-73.5 35t-81 20.5t-99.5 46.5l-189 21q-1 0 -26 -10.5 t-59.5 -26.5t-52.5 -27q-64 -42 -138.5 -138.5t-130 -210.5t-62.5 -196zM921 422q-2 3 -19.5 33t-22 37l-21.5 33t-26 36l-26.5 29.5t-31 29t-32 20t-37.5 16.5q-1 0 -9 2.5t-10 2.5l-3 2q-9 0 -15 -14.5t-6 -23.5l-1 -13q-1 -12 -1 -17v-15q0 -80 21 -109q7 -10 38 -21.5 t31 -30.5q0 -4 -1 -7t-3.5 -6.5l-4 -5.5t-6 -5.5t-5.5 -4.5t-7 -4l-6 -4q-8 2 -24 2q-15 0 -44 -3.5t-44 -3.5h-24q-15 5 -49 5q-2 2 -12 2q-5 0 -12.5 -0.5t-12.5 -1t-6 -0.5q-3 2 -27 8t-30 8q-18 3 -18 33v10q0 7 6 11q1 0 24.5 11.5t27.5 12.5l8 6q7 6 9 8q7 6 15.5 30 t8.5 37v209q7 21 7 38v73q0 2 2.5 13.5t2.5 12.5v33v36q-5 16 -25 30t-40 24t-36 30t-16 48q0 52 64 52q18 0 54 -3.5t55 -3.5q24 0 69.5 7.5t68.5 7.5l10 -3q9 0 27.5 -1.5t33.5 -2.5l14 -1l24 -12.5l24 -12.5q3 0 34 -6t35 -6q63 -13 96.5 -68.5t33.5 -124.5v-16 q-1 -2 -7 -13t-7 -13l-12 -36q-33 -61 -98 -118q0 -1 -1 -9t-1 -10t1 -10t1 -9q8 -14 12 -19q3 -2 13 -11.5t11 -12.5q1 -1 7 -12t7 -12q5 -10 19.5 -29t23.5 -27q30 -20 36 -31q1 -2 9 -25t17 -30q11 -6 12 -7q2 0 19 -6t18 -6t6.5 -5.5t5.5 -6.5q3 -2 12 -8.5t12.5 -9.5 t9 -9t7.5 -12.5t2 -14.5q0 -38 -67 -38q-154 0 -198 62zM662 874q0 -120 36 -120h7q1 0 13 2l11 3q2 2 13.5 3.5t23.5 2.5t13 1q57 26 85 45q7 6 7 18q0 4 -1 12.5t-1 11.5q3 1 6 11t3 13v35v34q-13 24 -50 56q-31 24 -106 24q-1 0 -8 1t-12 1q-17 0 -21 -7q-12 -15 -12 -25 q-7 -46 -7 -93v-29z" />
<glyph unicode="&#xaf;" horiz-adv-x="918" d="M156 1184q0 18 5 26t21 18q24 15 75 15q13 0 19.5 0.5t23.5 0.5h26q26 3 102 3q46 0 121 -6q2 0 13 1t12 1q22 2 31 2l31 -2l27 -2q7 -1 16 -1q4 0 12.5 0.5t13.5 0.5q44 0 55 -26q1 0 6 -11t5 -14q0 -37 -17.5 -49t-52.5 -12q-6 0 -20.5 0.5t-21.5 0.5h-45 q-5 0 -38.5 1.5t-45.5 0.5l-88 -7q-52 0 -63 4q-7 0 -19.5 0.5t-21.5 1.5l-10 1q-5 0 -18.5 -2t-16.5 -2h-69q-7 0 -26 4t-29 12q-13 9 -13 40z" />
<glyph unicode="&#xb0;" horiz-adv-x="655" d="M362 956q15 0 20 -9.5t16 -9.5h9q12 0 16 6q14 18 27.5 70t13.5 78q0 47 -22 99q-18 40 -50 55.5t-80 15.5q-35 0 -84 -29.5t-70 -58.5q-5 -9 -5 -33v-9q6 -52 12 -71q10 -51 22 -64q20 -19 60 -32.5t70 -13.5q8 0 22.5 3t22.5 3zM59 1072v7q13 65 20 93.5t30 76t56 76.5 q12 10 27 17.5t24 10t31 7t29 6.5q2 1 18 6.5t18 6.5h7h10q6 -1 21 -2.5t26 -3t12 -1.5t6.5 -4t11 -8.5t6.5 -5.5q8 -5 30.5 -12.5t33.5 -16.5q118 -92 118 -206v-5q-2 -10 -4 -31.5t-5 -38.5t-8 -30q-29 -65 -101 -123q-10 -7 -24 -25q-9 -5 -10 -5q-57 -17 -123 -17 q-34 0 -71 14t-58.5 27.5t-59.5 39.5q-4 3 -19 25q-1 2 -14.5 25t-19 34.5t-12 30t-6.5 32.5z" />
<glyph unicode="&#xb1;" horiz-adv-x="1195" d="M146 699q22 22 81 22h19q12 0 23 -5h149q75 0 91 16q18 18 18 71l-19 235q0 59 19 81q16 14 51 14q56 0 75 -24l28 -61q5 -5 12 -72q-9 -3 -16 -11q-15 -23 -15 -45q0 -44 12 -98q1 -10 2 -17t1 -9q0 -11 -1.5 -32t-1.5 -27l1 -3q7 -7 9 -7q24 0 72.5 8.5t69.5 8.5 q20 0 48 -10h154q9 0 23 -7q8 -10 8 -30v-76l-17 -19q-33 -33 -90 -33q-32 0 -92.5 11t-82.5 12l-20 -9l-64 -5q-9 -17 -15 -65t-6 -94q0 -47 7 -64q21 -23 21 -38q0 -3 -10 -19l-11 -16l3 -48q0 -22 -8 -30q-13 -10 -45 -10q-25 0 -48 5.5t-30 11.5q-20 37 -28 126t-14 115 l21 77q0 11 -7 21q-22 19 -45 19q-10 0 -33 -4t-38 -4q-24 0 -29 1q-6 7 -24 7l-23 -2q-35 -5 -60 -5q-33 0 -73 5q-34 0 -47 21q-14 22 -14 61q2 18 4 30t3 16zM129 42v46q0 25 2 38t17 27.5t45 17.5h65q52 7 118 7h62q15 0 31 3.5t26 3.5q30 0 87.5 -11t85.5 -11l147 17 q11 0 28 -4.5t24 -4.5q15 0 37 11q0 1 7 1q12 0 45 -7q28 0 41 -1t27.5 -6.5t24.5 -17.5q4 -4 4 -9l-6 -24q2 -6 2 -23q0 -26 -2 -31l-7 -28q-36 -34 -126 -34q-14 0 -71 3q-70 5 -71 5q-177 0 -375 -8q-23 -1 -81 -5t-87 -4t-62 14.5t-38 34.5z" />
<glyph unicode="&#xb2;" horiz-adv-x="601" d="M52 819q0 30 22 44t52.5 17.5t32.5 4.5q3 4 14 12t13 8q19 0 47.5 18.5t28.5 31.5q48 48 53 69v15q0 8 11 26l-2 11l1 -6q-3 5 -3.5 17t-1.5 19q-13 20 -13 25l2 -8l-6 13q-6 14 -14.5 26.5t-18.5 17.5l-3 2l-17 10h-55q-32 -16 -32 -17l-3 -2q-8 -12 -13 -18t-14.5 -12 t-21.5 -8h-6q-12 0 -26 10t-20 20v23q0 34 30 65t40 59h8q8 -1 9 -1h5q17 0 39 12q21 5 49 5q37 0 54 -6l21 -20q0 5 -3 11q12 -4 21 -6t11.5 -2.5t6.5 -2t8.5 -4.5t13.5 -11l19 -21q14 -14 16 -17q24 -25 34.5 -44.5t10.5 -53.5q0 -26 -4 -45.5t-9 -29.5t-16.5 -30 t-18.5 -36q-1 -2 -2.5 -6t-2.5 -5.5t-3 -5t-4.5 -5.5l-6.5 -5t-10 -6t-14 -6q-2 -5 -4.5 -9t-5 -5.5l-5 -3t-4.5 -2t-4 -0.5t-2.5 -0.5t-0.5 -1.5q-3 -2 -7.5 -7.5t-7.5 -9.5t-3 -5q0 -19 49 -22q5 0 15.5 -1t18 -1.5t13.5 -0.5l9 2l-9 -1q36 8 62 8h14q13 14 27.5 36 t24.5 33.5t21 11.5l12 -3q12 -4 27 -30v-10q0 -18 -15 -53.5t-19 -67.5q-6 -37 -17 -37q-6 0 -19 -5.5t-14 -5.5h-102q-7 5 -17 5h-8q-4 0 -17.5 -2.5t-24.5 -2.5q-9 0 -19.5 2t-16.5 2l-18 -2q-16 -2 -28 -2q-10 0 -25.5 2t-20.5 2q-30 0 -44 -8h-82q-15 0 -28.5 14 t-13.5 29z" />
<glyph unicode="&#xb3;" horiz-adv-x="497" d="M261 678zM86 588q-3 5 -3 12q0 19 22.5 37.5t44.5 18.5h46q39 20 67 24v9q28 0 28 44q1 0 -4 19t-12.5 39t-12.5 23q-10 15 -15 17.5t-22.5 2.5t-39.5 5q-9 5 -40.5 6.5t-51.5 11.5t-20 38q0 18 23 36t37 18q12 0 31.5 10t26.5 17q22 0 52 30q7 5 8 5v21q2 11 14.5 24.5 t15.5 19.5q-2 8 -2 11v9q0 18 6 31q-11 34 -12 38q-1 9 -12 24q-14 14 -42 14q-27 0 -54 -23t-54 -23q-35 0 -38 54v8q0 36 34 60.5t79 35.5q10 7 48 7h61q14 -9 31.5 -23t26.5 -20q67 -46 67 -95v-16q0 -17 -1.5 -32t-2 -26t-6 -23.5t-7 -19.5t-10.5 -19t-11.5 -16.5 t-16 -18l-17 -17t-21.5 -20t-23 -21.5l-4 -5q0 -9 9.5 -20t20.5 -18.5l23.5 -15.5t13.5 -9q15 -12 27 -31.5t20.5 -39.5t9.5 -22l7 -56l3 -23q0 -18 -6 -33.5t-17.5 -32.5t-15.5 -25q-5 -5 -5 -12q-18 -28 -60 -47q-5 -3 -14 -11t-20 -12.5t-34 -9.5h4q-12 -6 -24 -6 q-7 0 -13.5 2.5t-10.5 2.5q0 -2 -4 -4.5t-8.5 -3.5t-6.5 -1q-18 0 -18 4l-2 1h-1q-33 8 -55 23z" />
<glyph unicode="&#xb4;" horiz-adv-x="1076" d="M496 1070q0 40 17 81.5t34 65t54 68t49 60.5l23.5 33t24 32.5t22 23.5t29 22t33.5 10.5t46 5.5h14q28 -39 29 -49v-14q0 -26 -8 -43q-10 -17 -31 -33.5t-28 -25.5q-2 -2 -6 -8.5t-8.5 -13t-4.5 -7.5q-15 -25 -32 -46.5t-39 -45.5t-35 -41q-3 -4 -15.5 -25.5t-13.5 -23.5 q-17 -24 -76 -78h-7q-25 0 -48 13.5t-23 38.5z" />
<glyph unicode="&#xb5;" horiz-adv-x="1214" d="M6 -287l92 292q11 8 19 19q2 4 6.5 36t5.5 35q0 7 3.5 24.5t8.5 36t5 20.5q3 3 21 39q21 50 21 51q2 6 5 43.5t3 46.5q19 85 21 102q1 1 5.5 18.5t4.5 20.5q4 21 13 80t16.5 94t29 78.5t52.5 68.5q4 0 21 2t19 2q93 0 93 -102q0 -101 -124 -324q0 -2 1 -6.5t1 -7.5 q0 -16 -10.5 -50t-10.5 -50q0 -46 19.5 -82t61.5 -36q53 0 138 47.5t111 94.5q7 7 23 59q7 25 25 72t25 70q10 34 59 221q8 14 17.5 23.5t24 17t22.5 11t29 10.5t28 9q3 2 5 2l5 -2q36 -19 48.5 -41.5t12.5 -63.5v-30q0 -34 -11 -57q-25 -60 -60 -119q2 -2 2 -7 q0 -9 -8 -21.5t-19.5 -25.5t-14.5 -17q-26 -36 -52 -121l-9 -50q19 -57 21 -61q4 -9 15.5 -23.5t14.5 -14.5h100q13 17 50.5 37t39.5 22q17 10 38.5 57t42.5 54t35.5 -18.5t14.5 -45.5q0 -96 -160 -237q-17 -17 -51 -34.5t-53 -17.5l-7 1q-11 0 -37.5 4.5t-31.5 6.5 q-43 7 -70.5 40t-37 69t-21.5 64.5t-29 28.5l-3 -2q-3 -1 -7 -9.5t-4 -10.5q-29 -50 -31 -50q-43 -43 -109 -78t-121 -35q-62 0 -100 31q-9 8 -19.5 25t-22 27t-29.5 10q-16 0 -26.5 -11t-13.5 -23t-5.5 -31.5t-4.5 -25.5l-10 -19q-10 -18 -11 -21l-1 -11q0 -12 -0.5 -25.5 t-0.5 -20.5q0 -27 12 -74.5t12 -76.5q0 -33 -1.5 -50.5t-11.5 -42.5t-30 -42q-5 -5 -21 -16.5t-17 -12.5l-6 -1q-6 -1 -10 -1q-2 0 -8 1t-7 1q-18 8 -44.5 22.5t-26.5 17.5v90z" />
<glyph unicode="&#x3bc;" horiz-adv-x="1214" d="M6 -287l92 292q11 8 19 19q2 4 6.5 36t5.5 35q0 7 3.5 24.5t8.5 36t5 20.5q3 3 21 39q21 50 21 51q2 6 5 43.5t3 46.5q19 85 21 102q1 1 5.5 18.5t4.5 20.5q4 21 13 80t16.5 94t29 78.5t52.5 68.5q4 0 21 2t19 2q93 0 93 -102q0 -101 -124 -324q0 -2 1 -6.5t1 -7.5 q0 -16 -10.5 -50t-10.5 -50q0 -46 19.5 -82t61.5 -36q53 0 138 47.5t111 94.5q7 7 23 59q7 25 25 72t25 70q10 34 59 221q8 14 17.5 23.5t24 17t22.5 11t29 10.5t28 9q3 2 5 2l5 -2q36 -19 48.5 -41.5t12.5 -63.5v-30q0 -34 -11 -57q-25 -60 -60 -119q2 -2 2 -7 q0 -9 -8 -21.5t-19.5 -25.5t-14.5 -17q-26 -36 -52 -121l-9 -50q19 -57 21 -61q4 -9 15.5 -23.5t14.5 -14.5h100q13 17 50.5 37t39.5 22q17 10 38.5 57t42.5 54t35.5 -18.5t14.5 -45.5q0 -96 -160 -237q-17 -17 -51 -34.5t-53 -17.5l-7 1q-11 0 -37.5 4.5t-31.5 6.5 q-43 7 -70.5 40t-37 69t-21.5 64.5t-29 28.5l-3 -2q-3 -1 -7 -9.5t-4 -10.5q-29 -50 -31 -50q-43 -43 -109 -78t-121 -35q-62 0 -100 31q-9 8 -19.5 25t-22 27t-29.5 10q-16 0 -26.5 -11t-13.5 -23t-5.5 -31.5t-4.5 -25.5l-10 -19q-10 -18 -11 -21l-1 -11q0 -12 -0.5 -25.5 t-0.5 -20.5q0 -27 12 -74.5t12 -76.5q0 -33 -1.5 -50.5t-11.5 -42.5t-30 -42q-5 -5 -21 -16.5t-17 -12.5l-6 -1q-6 -1 -10 -1q-2 0 -8 1t-7 1q-18 8 -44.5 22.5t-26.5 17.5v90z" />
<glyph unicode="&#xb6;" horiz-adv-x="1202" d="M230 -401q0 54 47.5 90t103.5 36q24 0 42 -11.5t28.5 -29t24.5 -37.5t28.5 -37.5t42 -29t64.5 -11.5h26q7 3 59 40q32 27 44.5 54t12.5 71v10q0 1 -5.5 14t-5.5 14q0 19 10.5 51t10.5 49q0 14 -2 16q0 5 -4 48t-4 48q0 23 8 58q1 1 6 13.5t5 15.5v76q0 4 4.5 25t5.5 23 v16q0 11 -5 30.5t-5 31.5v28q0 1 9.5 9.5t9.5 9.5q2 8 -9 19h-5h-16q-2 1 -19 14.5t-19 14.5h-19q-27 5 -99.5 17t-121.5 23t-95 28q-47 15 -80 48q-9 8 -66 66t-69 69q-15 16 -26.5 32.5t-20.5 40l-13.5 35t-14 44t-11.5 40.5q0 2 -4.5 15t-4.5 15v22v54q-10 25 -10 29v26 v24q0 2 9.5 18.5t9.5 18.5q1 2 1 14q0 7 -0.5 21t-0.5 15q3 21 15 45t23.5 40.5t31.5 41.5t26 34l9 19q7 9 40 45t40 41q0 2 3.5 11.5t3.5 11.5q7 9 24 12.5t24 6.5q16 4 61 28q2 2 18 14.5t20 14.5q10 5 44.5 10.5t41.5 8.5q3 3 14.5 11t15.5 8q30 14 62 19.5t83 7t66 2.5 l4 3q4 2 8.5 4.5t6.5 3.5h3h7q5 -3 28 -11h289q21 11 43 11q30 0 56.5 -23t26.5 -52q0 -16 -30 -41q-14 -4 -96 -10q-1 0 -14.5 -4.5t-15.5 -4.5q-5 -1 -30 -3.5t-36.5 -5.5t-30.5 -9.5t-30 -19t-16 -30.5v-67q0 -4 -1 -18.5t-1 -23.5q0 -40 12 -57q9 -108 9 -173 q8 -485 10 -529q0 -97 9 -144q0 -1 5 -19t5 -20v-87q0 -1 4.5 -22.5t4.5 -24.5q0 -24 -9.5 -56t-9.5 -51q0 -14 10 -25.5t10 -21.5l-1 -10q0 -4 -9.5 -34.5t-9.5 -32.5q0 -6 -4 -39t-5 -38q-2 -3 -10.5 -20t-8.5 -19q-4 -14 -10 -68q-7 -23 -51.5 -85.5t-64.5 -76.5l-10 -5 l-18.5 -9.5t-9.5 -4.5q-3 -3 -11.5 -9.5l-16.5 -13t-10 -7.5q-4 -3 -12.5 -10.5t-11 -9.5l-9.5 -7.5l-9 -7l-8 -6t-9.5 -6t-9 -4.5t-11 -5.5t-12 -5l-14.5 -5.5t-27.5 -7t-31.5 -12q-6 0 -36.5 -1t-35.5 -1h-14.5t-18.5 0.5l-18 1t-14 0.5h-6q-10 0 -61 19 q-53 23 -80.5 54.5t-50.5 90.5q-4 0 -4 9z" />
<glyph unicode="&#xb7;" horiz-adv-x="497" d="M110 514q-7 31 -7 83v30q0 3 11 22l10 19q0 9 7 23q12 28 41.5 45t62.5 17q15 0 24 -4t19 -12t19 -12q2 -2 21 -8q13 -4 19 -10.5t12.5 -19t11.5 -19.5q3 -5 14 -15t18 -20t8 -20v-38q0 -15 -1 -23.5t-1.5 -14.5t-4.5 -11.5t-6.5 -8t-11.5 -10l-15 -12.5q-5 -3 -43 -41 l-26 -21h-78q-18 12 -21 12q-2 2 -14.5 8.5t-12.5 7.5q-5 4 -29 27z" />
<glyph unicode="&#x2219;" horiz-adv-x="497" d="M110 514q-7 31 -7 83v30q0 3 11 22l10 19q0 9 7 23q12 28 41.5 45t62.5 17q15 0 24 -4t19 -12t19 -12q2 -2 21 -8q13 -4 19 -10.5t12.5 -19t11.5 -19.5q3 -5 14 -15t18 -20t8 -20v-38q0 -15 -1 -23.5t-1.5 -14.5t-4.5 -11.5t-6.5 -8t-11.5 -10l-15 -12.5q-5 -3 -43 -41 l-26 -21h-78q-18 12 -21 12q-2 2 -14.5 8.5t-12.5 7.5q-5 4 -29 27z" />
<glyph unicode="&#xb8;" horiz-adv-x="898" d="M352 -510q2 4 7.5 13l11.5 19t7 11q1 2 8.5 5.5t8.5 3.5h51h20q31 24 44 36l4 4l4 3q4 4 10 13l10.5 15.5t5.5 7.5v7v10q0 2 -7 33t-8 38q-7 21 -19 26q-1 1 -10 4l-19.5 6.5t-14.5 5.5q-25 10 -26 10h-10h-7q-18 -5 -68.5 -30t-81.5 -25q0 31 10 45q39 54 61 79 q3 4 34 35q27 27 52 62q10 10 10 26v7q5 6 13 21t15 26t13 13q15 -2 42 -2q10 0 21 3t31 3q-1 -23 -20 -53q-4 -8 -14.5 -22t-16.5 -25.5t-6 -23.5v-9q5 -7 11 -9q30 -21 32 -26q7 -2 45 -17q7 -3 13.5 -7.5l11.5 -8t10 -10.5t8 -10t8 -12t6 -12t6.5 -14.5l6.5 -13.5 q19 -41 19 -99l-2 -22q-1 -8 -14.5 -35t-20.5 -36q-50 -50 -60 -59q-1 -1 -37 -19l-11 -8q-12 -8 -14 -9l-52 -26q-26 -2 -37 -2q-6 0 -25 1l-18 1q-10 1 -35 26q-1 2 -8.5 13t-8.5 13z" />
<glyph unicode="&#xb9;" horiz-adv-x="501" d="M275 782q-4 0 -10 2q-11 0 -27 -2t-26 -2q-24 0 -58.5 6t-49.5 7q-15 16 -15 31q0 10 6 17.5t16.5 15t13.5 10.5q1 -1 -1 -3q6 4 14 6q32 12 35 24q4 21 4 51q0 6 -2 23t-2 28v11l1 6q2 6 4.5 12.5t3.5 7.5l-4 11q-5 11 -5 19q0 23 5 50.5t5 39.5q0 2 -0.5 11.5 t-0.5 13.5v8v10v10l1 5q-2 1 -11.5 3t-13.5 4q-2 1 -12 3t-14 3t-13 3.5t-13 4.5l-10.5 5.5t-9.5 7.5t-5.5 9.5t-2.5 12.5q0 33 24 47t74 14q24 0 74 -1.5t62 -1.5l24 1q24 2 32 2q21 0 36 -16.5t15 -36.5q0 -15 -15.5 -28.5t-31.5 -17.5h-7q-3 0 -11 0.5t-11 0.5h-6 q-18 -3 -21 -13q3 -3 4.5 -14t2.5 -20l1 -9q0 -21 -2.5 -25.5t-2.5 -9.5q0 -11 3 -23l2 -39q-3 -3 -5.5 -12t-4.5 -20t-3 -14v-24q0 -37 -7 -65q0 -32 4 -47t9 -18.5t24 -8.5t34 -12l-6 1l15 -6q0 -1 -4 -1q6 -2 16.5 -2.5t16 -1.5t10 -7.5t4.5 -20.5t-7 -22t-18.5 -14.5 t-14.5 -9.5h-33q-60 0 -79 10z" />
<glyph unicode="&#xba;" horiz-adv-x="732" d="M246 1140q15 -19 24 -58t23 -54q2 -2 19.5 -23t20.5 -24q5 -5 17 -5h16q19 0 30.5 6.5t15.5 13.5t10 25t10 27q2 7 19 33q20 37 20 104v17v64q-15 40 -47 80t-65 40l-19 -2q-2 -1 -8 -10l-6 -9q-6 -8 -23.5 -19t-23.5 -21q-33 -70 -33 -72v-113zM89 1211q0 46 15.5 93 t43.5 80l9 8l16 16t8 9l9 11.5l9 11t8.5 9t12 9t14.5 6.5q5 1 62.5 9t69.5 10h7h5q8 -2 56 -13t56 -13q40 -11 87 -54q1 -1 3.5 -5t5 -8.5t3.5 -5.5q3 -5 17 -50t16 -49q2 -6 11.5 -17t9.5 -22v-106q-6 -16 -7 -19q-1 -1 -7 -16.5t-7 -16.5q0 -3 -2.5 -20.5t-2.5 -19.5 q-10 -23 -28 -46q-44 -63 -98 -88t-136 -25h-20q-61 0 -95 14q-50 22 -92.5 76.5t-51.5 108.5q-7 38 -7 123z" />
<glyph unicode="&#xbb;" horiz-adv-x="931" d="M295 249q-10 -16 -45 -38t-43 -48h-51q-18 0 -39 17v29q4 13 14 25.5t19 31.5l24 37q16 23 27 36q1 1 19 29t26 30q6 0 14 10t17.5 25.5t12.5 19.5q-4 4 -12.5 20t-17 28.5t-15.5 12.5q-14 33 -52 72.5t-49 76.5q0 2 -6 23t-6 28q3 7 27 11.5t32 4.5q9 0 106 -86 q7 0 21.5 -18t36 -38.5t42.5 -26.5q21 -11 35.5 -20t33 -23.5t28.5 -31t10 -34.5q0 -32 -44 -73t-77 -54l-26 -12q-2 -2 -25.5 -33t-34.5 -31h-2zM632 240q-10 -14 -44.5 -37t-43.5 -51h-50q-16 0 -38 19v30q2 7 5 11.5t6 8t9 12t13 20.5l12 29q7 19 36 48q4 2 21 28t26 30 q6 0 14.5 10t17 24.5t11.5 18.5q-3 4 -11.5 20.5t-17 28t-16.5 12.5q-14 36 -52 75t-48 73q-1 7 -7.5 28t-6.5 26q3 6 27.5 11.5t32.5 5.5t52.5 -39t51.5 -49q8 0 38.5 -36.5t49.5 -39.5q44 -19 83 -51t39 -67q0 -31 -42 -69t-80 -57l-26 -9q-3 -2 -26 -33t-34 -31h-2z" />
<glyph unicode="&#xbc;" horiz-adv-x="1469" d="M402 26l1 3q-5 -8 -19 -22t-26 -24l-12 -10h-13q-20 2 -28.5 3.5t-20.5 10t-18 24.5q-9 18 -9 26q0 5 0.5 9.5t1 7.5t3 7.5l4 7l6.5 10.5l8 13l-2 -3q1 2 4.5 7t4.5 7l60 77q7 8 25.5 26t29.5 32t19 30l205 261q115 153 146 188l-2 -2q13 20 41.5 57.5t37.5 50.5l23 25 q2 2 7 10t6 10v-1q10 18 26 39.5t26.5 34l34.5 40l31 35.5l88 101q8 3 15.5 6.5t17.5 6.5q21 -2 34.5 -17.5t13.5 -35.5q-2 -9 -2 -23q-1 -9 -4.5 -19t-10.5 -22t-11.5 -18l-14.5 -20t-12 -16q-9 -4 -24.5 -22t-27.5 -44q-50 -73 -113 -148t-103 -133l3 10q-15 -23 -18 -26 l1 1q-11 -14 -24.5 -29t-21.5 -25.5l-15 -20.5q-14 -22 -30 -41l-36 -41q-7 -14 -33 -46l-47 -59.5t-21 -35.5q-14 -16 -21.5 -26.5l-18.5 -27t-27 -37.5q-8 -11 -21 -21q-2 -4 -8 -17t-9 -17q-14 -13 -32 -39v1q-10 -15 -15.5 -22l-19 -23.5t-33.5 -43.5zM281 502 q-4 0 -10 2q-11 0 -27 -2t-26 -2q-24 0 -58.5 6t-49.5 7q-15 16 -15 31q0 10 6 17.5t16.5 15t13.5 10.5q1 -1 -1 -3q6 4 14 6q32 12 35 24q4 21 4 51q0 6 -2 23t-2 28v11l1 6q2 6 4.5 12.5t3.5 7.5l-4 11q-5 11 -5 19q0 23 5 50.5t5 39.5q0 2 -0.5 11.5t-0.5 13.5v8v10v10 l1 5q-2 1 -11.5 3t-13.5 4q-2 1 -12 3t-14 3t-13 3.5t-13 4.5l-10.5 5.5t-9.5 7.5t-5.5 9.5t-2.5 12.5q0 33 24 47t74 14q24 0 74 -1.5t62 -1.5l24 1q24 2 32 2q21 0 36 -16.5t15 -36.5q0 -15 -15.5 -28.5t-31.5 -17.5h-7q-3 0 -11 0.5t-11 0.5h-6q-18 -3 -21 -13 q3 -3 4.5 -14t2.5 -20l1 -9q0 -21 -2.5 -25.5t-2.5 -9.5q0 -11 3 -23l2 -39q-3 -3 -5.5 -12t-4.5 -20t-3 -14v-24q0 -37 -7 -65q0 -32 4 -47t9 -18.5t24 -8.5t34 -12l-6 1l15 -6q0 -1 -4 -1q6 -2 16.5 -2.5t16 -1.5t10 -7.5t4.5 -20.5t-7 -22t-18.5 -14.5t-14.5 -9.5h-33 q-60 0 -79 10zM1032 290h-2v2l-1 2zM880 158q-4 -3 -6 -3q0 -3 42 -14q22 -9 34 -9q1 0 9.5 1t11.5 1h17q17 0 25.5 9.5t10 21t3.5 32.5t5 33v30q0 22 -2 30h-20q4 -3 4 -4q-26 -17 -44.5 -43.5t-38 -49t-51.5 -35.5zM1018 -4zM1025 -10zM1024 -244v-22v-8q0 -40 23 -40 q17 -10 37 -18h24q29 0 44 31.5t15 62.5q0 45 -4 63q3 8 3 20q0 6 -2.5 15.5t-2.5 26.5v56q0 29 3 45q16 8 43 8q2 0 15 -3t16 -3h27q1 -1 3 -1l4 -2l-6 10q18 -18 48 -18q22 0 63 28q33 76 33 94q0 14 -12 30t-28 16q0 -3 -27 -8t-37 -5l-5 -5l4 1l-7 -2q-78 -15 -121 -19 q-32 15 -33 19q0 11 4 34.5t8.5 42.5t5.5 19q0 4 2 22.5t2 23.5v30q1 4 8.5 25t7.5 24v9q0 4 0.5 11.5t0.5 9.5q0 1 -0.5 8t-0.5 10v16q-5 10 -5 22q0 28 3 41q-23 21 -36 21q-32 0 -95 -63q-41 -41 -89 -77q-7 -6 -13 -16.5t-23 -16.5q-5 -7 -24.5 -27t-25.5 -24 q-1 -1 -6 -9l-6 -8l-9 -9q-2 -3 -3 -3l-8 -7q-9 -7 -20 -16.5l-22.5 -20t-19 -20t-7.5 -13.5l-16.5 -16.5l-26.5 -27.5t-23 -31t-11 -32q0 -36 44 -65h11q25 0 54 9h10q39 0 67 -2.5t35 -2.5h31q45 0 72 -8l4 -9q5 -10 11 -16v-40l-2 -6l-1 -22q1 -2 3 -3v-32q-7 -14 -7 -21 v-32q-4 -36 -4 -54z" />
<glyph unicode="&#xbd;" horiz-adv-x="1412" d="M402 26l1 3q-5 -8 -19 -22t-26 -24l-12 -10h-13q-20 2 -28.5 3.5t-20.5 10t-18 24.5q-9 18 -9 26q0 5 0.5 9.5t1 7.5t3 7.5l4 7l6.5 10.5l8 13l-2 -3q1 2 4.5 7t4.5 7l60 77q7 8 25.5 26t29.5 32t19 30l205 261q115 153 146 188l-2 -2q13 20 41.5 57.5t37.5 50.5l23 25 q2 2 7 10t6 10v-1q10 18 26 39.5t26.5 34l34.5 40l31 35.5l88 101q8 3 15.5 6.5t17.5 6.5q21 -2 34.5 -17.5t13.5 -35.5q-2 -9 -2 -23q-1 -9 -4.5 -19t-10.5 -22t-11.5 -18l-14.5 -20t-12 -16q-9 -4 -24.5 -22t-27.5 -44q-50 -73 -113 -148t-103 -133l3 10q-15 -23 -18 -26 l1 1q-11 -14 -24.5 -29t-21.5 -25.5l-15 -20.5q-14 -22 -30 -41l-36 -41q-7 -14 -33 -46l-47 -59.5t-21 -35.5q-14 -16 -21.5 -26.5l-18.5 -27t-27 -37.5q-8 -11 -21 -21q-2 -4 -8 -17t-9 -17q-14 -13 -32 -39v1q-10 -15 -15.5 -22l-19 -23.5t-33.5 -43.5zM281 502 q-4 0 -10 2q-11 0 -27 -2t-26 -2q-24 0 -58.5 6t-49.5 7q-15 16 -15 31q0 10 6 17.5t16.5 15t13.5 10.5q1 -1 -1 -3q6 4 14 6q32 12 35 24q4 21 4 51q0 6 -2 23t-2 28v11l1 6q2 6 4.5 12.5t3.5 7.5l-4 11q-5 11 -5 19q0 23 5 50.5t5 39.5q0 2 -0.5 11.5t-0.5 13.5v8v10v10 l1 5q-2 1 -11.5 3t-13.5 4q-2 1 -12 3t-14 3t-13 3.5t-13 4.5l-10.5 5.5t-9.5 7.5t-5.5 9.5t-2.5 12.5q0 33 24 47t74 14q24 0 74 -1.5t62 -1.5l24 1q24 2 32 2q21 0 36 -16.5t15 -36.5q0 -15 -15.5 -28.5t-31.5 -17.5h-7q-3 0 -11 0.5t-11 0.5h-6q-18 -3 -21 -13 q3 -3 4.5 -14t2.5 -20l1 -9q0 -21 -2.5 -25.5t-2.5 -9.5q0 -11 3 -23l2 -39q-3 -3 -5.5 -12t-4.5 -20t-3 -14v-24q0 -37 -7 -65q0 -32 4 -47t9 -18.5t24 -8.5t34 -12l-6 1l15 -6q0 -1 -4 -1q6 -2 16.5 -2.5t16 -1.5t10 -7.5t4.5 -20.5t-7 -22t-18.5 -14.5t-14.5 -9.5h-33 q-60 0 -79 10zM811 39q0 30 22 44t52.5 17.5t32.5 4.5q3 4 14 12t13 8q19 0 47.5 18.5t28.5 31.5q48 48 53 69v15q0 8 11 26l-2 11l1 -6q-3 5 -3.5 17t-1.5 19q-13 20 -13 25l2 -8l-6 13q-6 14 -14.5 26.5t-18.5 17.5l-3 2l-17 10h-55q-32 -16 -32 -17l-3 -2q-8 -12 -13 -18 t-14.5 -12t-21.5 -8h-6q-12 0 -26 10t-20 20v23q0 34 30 65t40 59h8q8 -1 9 -1h5q17 0 39 12q21 5 49 5q37 0 54 -6l21 -20q0 5 -3 11q12 -4 21 -6t11.5 -2.5t6.5 -2t8.5 -4.5t13.5 -11l19 -21q14 -14 16 -17q24 -25 34.5 -44.5t10.5 -53.5q0 -26 -4 -45.5t-9 -29.5 t-16.5 -30t-18.5 -36q-1 -2 -2.5 -6t-2.5 -5.5t-3 -5t-4.5 -5.5l-6.5 -5t-10 -6t-14 -6q-2 -5 -4.5 -9t-5 -5.5l-5 -3t-4.5 -2t-4 -0.5t-2.5 -0.5t-0.5 -1.5q-3 -2 -7.5 -7.5t-7.5 -9.5t-3 -5q0 -19 49 -22q5 0 15.5 -1t18 -1.5t13.5 -0.5l9 2l-9 -1q36 8 62 8h14 q13 14 27.5 36t24.5 33.5t21 11.5l12 -3q12 -4 27 -30v-10q0 -18 -15 -53.5t-19 -67.5q-6 -37 -17 -37q-6 0 -19 -5.5t-14 -5.5h-102q-8 5 -17 5h-8q-4 0 -17.5 -2.5t-24.5 -2.5q-9 0 -19.5 2t-16.5 2l-18 -2q-16 -2 -28 -2q-10 0 -25.5 2t-20.5 2q-30 0 -44 -8h-82 q-15 0 -28.5 14t-13.5 29z" />
<glyph unicode="&#xbe;" horiz-adv-x="1583" d="M516 26l1 3q-5 -8 -19 -22t-26 -24l-12 -10h-13q-20 2 -28.5 3.5t-20.5 10t-18 24.5q-9 18 -9 26q0 5 0.5 9.5t1 7.5t3 7.5l4 7l6.5 10.5l8 13l-2 -3q1 2 4.5 7t4.5 7l60 77q7 8 25.5 26t29.5 32t19 30l205 261q115 153 146 188l-2 -2q13 20 41.5 57.5t37.5 50.5l23 25 q2 2 7 10t6 10v-1q10 18 26 39.5t26.5 34l34.5 40l31 35.5l88 101q8 3 15.5 6.5t17.5 6.5q21 -2 34.5 -17.5t13.5 -35.5q-2 -9 -2 -23q-1 -9 -4.5 -19t-10.5 -22t-11.5 -18l-14.5 -20t-12 -16q-9 -4 -24.5 -22t-27.5 -44q-50 -73 -113 -148t-103 -133l3 10q-15 -23 -18 -26 l1 1q-11 -14 -24.5 -29t-21.5 -25.5l-15 -20.5q-14 -22 -30 -41l-36 -41q-7 -14 -33 -46l-47 -59.5t-21 -35.5q-14 -16 -21.5 -26.5l-18.5 -27t-27 -37.5q-8 -11 -21 -21q-2 -4 -8 -17t-9 -17q-14 -13 -32 -39v1q-10 -15 -15.5 -22l-19 -23.5t-33.5 -43.5zM283 398zM108 308 q-3 5 -3 12q0 19 22.5 37.5t44.5 18.5h46q39 20 67 24v9q28 0 28 44q1 0 -4 19t-12.5 39t-12.5 23q-10 15 -15 17.5t-22.5 2.5t-39.5 5q-9 5 -40.5 6.5t-51.5 11.5t-20 38q0 18 23 36t37 18q12 0 31.5 10t26.5 17q22 0 52 30q7 5 8 5v21q2 11 14.5 24.5t15.5 19.5 q-2 8 -2 11v9q0 18 6 31q-11 34 -12 38q-1 9 -12 24q-14 14 -42 14q-27 0 -54 -23t-54 -23q-35 0 -38 54v8q0 36 34 60.5t79 35.5q10 7 48 7h61q14 -9 31.5 -23t26.5 -20q67 -46 67 -95v-16q0 -17 -1.5 -32t-2 -26t-6 -23.5t-7 -19.5t-10.5 -19t-11.5 -16.5t-16 -18l-17 -17 t-21.5 -20t-23 -21.5l-4 -5q0 -9 9.5 -20t20.5 -18.5l23.5 -15.5t13.5 -9q15 -12 27 -31.5t20.5 -39.5t9.5 -22l7 -56l3 -23q0 -18 -6 -33.5t-17.5 -32.5t-15.5 -25q-5 -5 -5 -12q-18 -28 -60 -47q-5 -3 -14 -11t-20 -12.5t-34 -9.5h4q-12 -6 -24 -6q-7 0 -13.5 2.5 t-10.5 2.5q0 -2 -4 -4.5t-8.5 -3.5t-6.5 -1q-18 0 -18 4l-2 1h-1q-33 8 -55 23zM1146 290h-2v2l-1 2zM994 158q-4 -3 -6 -3q0 -3 42 -14q22 -9 34 -9q1 0 9.5 1t11.5 1h17q17 0 25.5 9.5t10 21t3.5 32.5t5 33v30q0 22 -2 30h-20q4 -3 4 -4q-26 -17 -44.5 -43.5t-38 -49 t-51.5 -35.5zM1132 -4zM1139 -10zM1138 -244v-22v-8q0 -40 23 -40q17 -10 37 -18h24q29 0 44 31.5t15 62.5q0 45 -4 63q3 8 3 20q0 6 -2.5 15.5t-2.5 26.5v56q0 29 3 45q16 8 43 8q2 0 15 -3t16 -3h27q1 -1 3 -1l4 -2l-6 10q18 -18 48 -18q22 0 63 28q33 76 33 94 q0 14 -12 30t-28 16q0 -3 -27 -8t-37 -5l-5 -5l4 1l-7 -2q-78 -15 -121 -19q-32 15 -33 19q0 11 4 34.5t8.5 42.5t5.5 19q0 4 2 22.5t2 23.5v30q1 4 8.5 25t7.5 24v9q0 4 0.5 11.5t0.5 9.5q0 1 -0.5 8t-0.5 10v16q-5 10 -5 22q0 28 3 41q-23 21 -36 21q-32 0 -95 -63 q-41 -41 -89 -77q-7 -6 -13 -16.5t-23 -16.5q-5 -7 -24.5 -27t-25.5 -24q-1 -1 -6 -9l-6 -8l-9 -9q-2 -3 -3 -3l-8 -7q-9 -7 -20 -16.5l-22.5 -20t-19 -20t-7.5 -13.5l-16.5 -16.5l-26.5 -27.5t-23 -31t-11 -32q0 -36 44 -65h11q25 0 54 9h10q39 0 67 -2.5t35 -2.5h31 q45 0 72 -8l4 -9q5 -10 11 -16v-40l-2 -6l-1 -22q1 -2 3 -3v-32q-7 -14 -7 -21v-32q-4 -36 -4 -54z" />
<glyph unicode="&#xbf;" horiz-adv-x="762" d="M606 1107q0 -3 -3.5 -34t-3.5 -35v-327q-31 -50 -69 -50q-22 0 -42 15q-24 11 -46 11q-23 0 -51 -11q-13 -3 -27 -12l-14.5 -7.5l-10 -5.5t-8.5 -7.5t-6.5 -7t-8 -10.5t-9.5 -12q-1 -1 -4 -4.5t-5 -6.5l-3 -3q-20 -5 -23 -5q-9 -13 -12 -15q-42 -69 -42 -109v-2 q0 -7 7 -16q17 -24 33 -69t35 -83t48 -61q18 -13 28 -13q36 7 83 7q43 0 85 -7q26 -4 52 -39.5t26 -62.5q0 -75 -47 -105t-130 -30q-64 0 -88 8q-6 1 -34.5 16t-34.5 19q-5 3 -17 6.5t-20 8t-13 13.5q-1 0 -3.5 7.5l-5.5 16.5t-4 10q-7 11 -22.5 31t-25.5 37t-14 36 q-2 2 -4.5 22t-2.5 25q-3 14 -23 43t-20 48q0 13 4.5 39.5t4.5 40.5q0 40 -9 74q0 1 -4 10l-3 9v7v9q2 9 5.5 30l6.5 38.5t4 19.5q0 3 8.5 18t10.5 17q0 1 3.5 7t3.5 8q0 1 3.5 13t4.5 15q0 1 6 9.5t6 9.5q14 17 14 28q1 1 4.5 11t4.5 11q23 31 59.5 57.5t71.5 30.5h16h38 q32 13 35 16h57q17 7 20 47v52v52q0 12 -6.5 37.5t-6.5 39.5q0 32 24.5 62t54.5 30q27 0 43 -24t16 -54zM654 1446q0 -4 3.5 -30.5t3.5 -31.5v-7v-14q0 -42 -12 -55q-61 -55 -143 -55q-42 0 -72 43.5t-30 85.5q0 11 2 20.5t7 18.5t9 14.5t13.5 13l13.5 10.5t16.5 11.5 l15.5 10.5q2 1 18 14t17 14h9q31 0 68.5 -19t60.5 -44z" />
<glyph unicode="&#xc0;" d="M472 711v-2q0 -2 1.5 -7t2.5 -9.5t1 -5.5q13 -22 21.5 -34.5t25.5 -23.5t37 -11q13 0 35 7.5t35 7.5q12 0 34.5 -4t34.5 -4h7q5 2 23 11t20 9q7 7 7 40q0 20 -14 57.5t-15 41.5l-56 181l-12.5 38t-14.5 45q-9 21 -21 56q-11 14 -14 15q-16 0 -26.5 -21t-15.5 -43v-20 q-1 -3 -10.5 -20.5t-11.5 -19.5q0 -39 -5 -64q-3 -13 -17.5 -41t-17.5 -42q0 -4 -3 -25t-4 -24q-1 -1 -11 -21l-11 -22q-4 -29 -5 -42v-3zM1221 -7h-113q-2 0 -36 3.5t-38 3.5q-6 0 -53.5 1t-79.5 1q-34 0 -80.5 -1t-51.5 -1q-21 19 -21 35q0 9 9 27q0 4 3.5 12t8.5 9 q4 0 22.5 3t19.5 4q4 1 22.5 14t20.5 14q1 2 18.5 4.5t22.5 2.5l6 6v35q0 32 -8 67.5t-21 78.5t-18 63q-1 3 -8 35t-8 35q0 3 -6 18t-6 16q-1 3 -4.5 14.5t-6 16.5l-6.5 13t-10 12.5t-14 5.5q-19 7 -51 7l-12 -7q-1 0 -10 -2.5t-12 -2.5h-55q-97 0 -146 -8l-14 -7 q-42 -7 -83 -7l-7 -7l-27 -152q-17 -19 -23 -42.5t-7 -55.5t-5 -48q0 -3 -6.5 -14t-8.5 -13l8 -16q5 -5 12 -19q2 -1 27 -7.5t30 -8.5q1 0 15.5 -3.5t19 -4.5t18.5 -5t20.5 -7l17.5 -8t16.5 -10.5l12.5 -12.5t9.5 -16t2.5 -19v-17q-1 -4 -12 -15t-16 -13q-15 0 -97 -3.5 t-98 -3.5h-139h-138q-1 1 -4 7.5t-5 8.5q-1 6 -4.5 20.5t-5.5 27.5t-2 24q0 18 42 31q28 0 43 6q75 34 95 48l10 16v97q11 1 21 23t18.5 51t12.5 36q1 1 14.5 13t13.5 15q1 2 4 26t3 29q10 25 16 30l12 116q16 22 27 91q7 7 7 21q1 1 8 9.5t8 9.5q3 11 12 64v28q10 23 29 55 q2 3 7 21t5 21q4 5 14 31l9 26q7 20 18 65.5t17 65.5q2 6 20 43t19 61q2 2 2 10q0 6 -1 18.5t-1 13.5q4 5 17 27.5t13 27.5v15v39q3 15 14 29q15 10 20 14l28 18.5t26.5 17t25.5 10t35 4.5q3 0 19 -1t19 -1q31 -26 34 -41q8 -28 15.5 -81.5t14.5 -77.5l5 -14q7 -16 7 -21 v-35q3 -13 13.5 -41.5t13.5 -42.5q3 -5 8.5 -40.5t5.5 -42.5q1 -1 4 -11.5t6.5 -19.5t5.5 -9l40 -161q21 -35 37 -82t21.5 -73.5l17.5 -88.5q5 -10 8 -19q11 -27 31 -83t32 -85q0 -2 -3.5 -22.5t-5.5 -25.5v-9v-5q16 -21 29 -43t22.5 -55t22 -58.5t38.5 -44.5q0 -1 3.5 -4.5 t3.5 -4.5q4 -1 15.5 -7t12.5 -6q8 -2 46 -7t46 -5q41 -20 41 -35q0 -10 -13 -47t-21 -38h-23h-12q-19 0 -29 7zM175 1743q-6 17 -6 32q0 28 17 51.5t44 34.5q17 7 36 7q46 0 127 -49q2 -1 6.5 -3.5t6.5 -3.5q6 -2 28 -17t28 -23q8 -4 32 -29q11 -4 15 -6q4 -1 20 -5.5t28 -9 t20 -10.5q4 -1 27.5 -17.5t28.5 -21.5q26 -7 53 -21q12 -9 32 -42.5t27 -51.5q-47 -20 -79 -20q-15 0 -24 4q-1 3 -13 15q-1 1 -7 1q-4 0 -12 -0.5t-11 -0.5q-12 0 -33 12.5t-31 12.5q-1 1 -9 1h-15h-4q-24 5 -76 26t-60 24q-3 1 -64.5 26t-69.5 27q-50 25 -62 57z" />
<glyph unicode="&#xc1;" d="M472 711v-2q0 -2 1.5 -7t2.5 -9.5t1 -5.5q13 -22 21.5 -34.5t25.5 -23.5t37 -11q13 0 35 7.5t35 7.5q12 0 34.5 -4t34.5 -4h7q5 2 23 11t20 9q7 7 7 40q0 20 -14 57.5t-15 41.5l-56 181l-12.5 38t-14.5 45q-9 21 -21 56q-11 14 -14 15q-16 0 -26.5 -21t-15.5 -43v-20 q-1 -3 -10.5 -20.5t-11.5 -19.5q0 -39 -5 -64q-3 -13 -17.5 -41t-17.5 -42q0 -4 -3 -25t-4 -24q-1 -1 -11 -21l-11 -22q-4 -29 -5 -42v-3zM1221 -7h-113q-2 0 -36 3.5t-38 3.5q-6 0 -53.5 1t-79.5 1q-34 0 -80.5 -1t-51.5 -1q-21 19 -21 35q0 9 9 27q0 4 3.5 12t8.5 9 q4 0 22.5 3t19.5 4q4 1 22.5 14t20.5 14q1 2 18.5 4.5t22.5 2.5l6 6v35q0 32 -8 67.5t-21 78.5t-18 63q-1 3 -8 35t-8 35q0 3 -6 18t-6 16q-1 3 -4.5 14.5t-6 16.5l-6.5 13t-10 12.5t-14 5.5q-19 7 -51 7l-12 -7q-1 0 -10 -2.5t-12 -2.5h-55q-97 0 -146 -8l-14 -7 q-42 -7 -83 -7l-7 -7l-27 -152q-17 -19 -23 -42.5t-7 -55.5t-5 -48q0 -3 -6.5 -14t-8.5 -13l8 -16q5 -5 12 -19q2 -1 27 -7.5t30 -8.5q1 0 15.5 -3.5t19 -4.5t18.5 -5t20.5 -7l17.5 -8t16.5 -10.5l12.5 -12.5t9.5 -16t2.5 -19v-17q-1 -4 -12 -15t-16 -13q-15 0 -97 -3.5 t-98 -3.5h-139h-138q-1 1 -4 7.5t-5 8.5q-1 6 -4.5 20.5t-5.5 27.5t-2 24q0 18 42 31q28 0 43 6q75 34 95 48l10 16v97q11 1 21 23t18.5 51t12.5 36q1 1 14.5 13t13.5 15q1 2 4 26t3 29q10 25 16 30l12 116q16 22 27 91q7 7 7 21q1 1 8 9.5t8 9.5q3 11 12 64v28q10 23 29 55 q2 3 7 21t5 21q4 5 14 31l9 26q7 20 18 65.5t17 65.5q2 6 20 43t19 61q2 2 2 10q0 6 -1 18.5t-1 13.5q4 5 17 27.5t13 27.5v15v39q3 15 14 29q15 10 20 14l28 18.5t26.5 17t25.5 10t35 4.5q3 0 19 -1t19 -1q31 -26 34 -41q8 -28 15.5 -81.5t14.5 -77.5l5 -14q7 -16 7 -21 v-35q3 -13 13.5 -41.5t13.5 -42.5q3 -5 8.5 -40.5t5.5 -42.5q1 -1 4 -11.5t6.5 -19.5t5.5 -9l40 -161q21 -35 37 -82t21.5 -73.5l17.5 -88.5q5 -10 8 -19q11 -27 31 -83t32 -85q0 -2 -3.5 -22.5t-5.5 -25.5v-9v-5q16 -21 29 -43t22.5 -55t22 -58.5t38.5 -44.5q0 -1 3.5 -4.5 t3.5 -4.5q4 -1 15.5 -7t12.5 -6q8 -2 46 -7t46 -5q41 -20 41 -35q0 -10 -13 -47t-21 -38h-23h-12q-19 0 -29 7zM674 1587q13 38 43 71.5t54 50t73 46t66 40.5l30 21.5l31 21.5t25.5 15t31.5 12t31 3q26 0 62 -12q2 -1 13 -5q12 -50 11 -56q-4 -9 -5 -13q-8 -24 -22 -38 q-15 -13 -40 -21.5t-35 -14.5q-3 -2 -15 -11t-13 -10q-22 -19 -45.5 -33.5t-52 -29.5t-46.5 -27q-4 -3 -23 -19.5t-20 -17.5q-17 -10 -98 -48l-4 2t-3 1q-19 7 -35 23t-16 35q0 9 2 14z" />
<glyph unicode="&#xc2;" d="M472 711v-2q0 -2 1.5 -7t2.5 -9.5t1 -5.5q13 -22 21.5 -34.5t25.5 -23.5t37 -11q13 0 35 7.5t35 7.5q12 0 34.5 -4t34.5 -4h7q5 2 23 11t20 9q7 7 7 40q0 20 -14 57.5t-15 41.5l-56 181l-12.5 38t-14.5 45q-9 21 -21 56q-11 14 -14 15q-16 0 -26.5 -21t-15.5 -43v-20 q-1 -3 -10.5 -20.5t-11.5 -19.5q0 -39 -5 -64q-3 -13 -17.5 -41t-17.5 -42q0 -4 -3 -25t-4 -24q-1 -1 -11 -21l-11 -22q-4 -29 -5 -42v-3zM1221 -7h-113q-2 0 -36 3.5t-38 3.5q-6 0 -53.5 1t-79.5 1q-34 0 -80.5 -1t-51.5 -1q-21 19 -21 35q0 9 9 27q0 4 3.5 12t8.5 9 q4 0 22.5 3t19.5 4q4 1 22.5 14t20.5 14q1 2 18.5 4.5t22.5 2.5l6 6v35q0 32 -8 67.5t-21 78.5t-18 63q-1 3 -8 35t-8 35q0 3 -6 18t-6 16q-1 3 -4.5 14.5t-6 16.5l-6.5 13t-10 12.5t-14 5.5q-19 7 -51 7l-12 -7q-1 0 -10 -2.5t-12 -2.5h-55q-97 0 -146 -8l-14 -7 q-42 -7 -83 -7l-7 -7l-27 -152q-17 -19 -23 -42.5t-7 -55.5t-5 -48q0 -3 -6.5 -14t-8.5 -13l8 -16q5 -5 12 -19q2 -1 27 -7.5t30 -8.5q1 0 15.5 -3.5t19 -4.5t18.5 -5t20.5 -7l17.5 -8t16.5 -10.5l12.5 -12.5t9.5 -16t2.5 -19v-17q-1 -4 -12 -15t-16 -13q-15 0 -97 -3.5 t-98 -3.5h-139h-138q-1 1 -4 7.5t-5 8.5q-1 6 -4.5 20.5t-5.5 27.5t-2 24q0 18 42 31q28 0 43 6q75 34 95 48l10 16v97q11 1 21 23t18.5 51t12.5 36q1 1 14.5 13t13.5 15q1 2 4 26t3 29q10 25 16 30l12 116q16 22 27 91q7 7 7 21q1 1 8 9.5t8 9.5q3 11 12 64v28q10 23 29 55 q2 3 7 21t5 21q4 5 14 31l9 26q7 20 18 65.5t17 65.5q2 6 20 43t19 61q2 2 2 10q0 6 -1 18.5t-1 13.5q4 5 17 27.5t13 27.5v15v39q3 15 14 29q15 10 20 14l28 18.5t26.5 17t25.5 10t35 4.5q3 0 19 -1t19 -1q31 -26 34 -41q8 -28 15.5 -81.5t14.5 -77.5l5 -14q7 -16 7 -21 v-35q3 -13 13.5 -41.5t13.5 -42.5q3 -5 8.5 -40.5t5.5 -42.5q1 -1 4 -11.5t6.5 -19.5t5.5 -9l40 -161q21 -35 37 -82t21.5 -73.5l17.5 -88.5q5 -10 8 -19q11 -27 31 -83t32 -85q0 -2 -3.5 -22.5t-5.5 -25.5v-9v-5q16 -21 29 -43t22.5 -55t22 -58.5t38.5 -44.5q0 -1 3.5 -4.5 t3.5 -4.5q4 -1 15.5 -7t12.5 -6q8 -2 46 -7t46 -5q41 -20 41 -35q0 -10 -13 -47t-21 -38h-23h-12q-19 0 -29 7zM832 1665q10 -8 26.5 -36t38.5 -36v-40q0 -17 -12 -31h-22q-7 2 -12 4t-8 4.5t-10.5 7.5t-16.5 10l-19 8q-6 4 -31 25l-9 7q-42 30 -43 34q-13 6 -26 22.5 t-21 16.5q-14 0 -38.5 -25.5t-24.5 -34.5q-28 -12 -52.5 -30.5t-50.5 -27.5q-4 0 -21.5 -5.5t-23.5 -5.5q-4 1 -7 21.5t-3 27.5q0 5 30.5 42t38.5 42q0 5 28 28.5t31 39.5l12.5 26l17 34.5t18.5 31t23 25.5t24 9q25 0 54.5 -43.5t47.5 -82.5l7 -19q2 -3 28 -22t26 -27z" />
<glyph unicode="&#xc3;" d="M472 711v-2q0 -2 1.5 -7t2.5 -9.5t1 -5.5q13 -22 21.5 -34.5t25.5 -23.5t37 -11q13 0 35 7.5t35 7.5q12 0 34.5 -4t34.5 -4h7q5 2 23 11t20 9q7 7 7 40q0 20 -14 57.5t-15 41.5l-56 181l-12.5 38t-14.5 45q-9 21 -21 56q-11 14 -14 15q-16 0 -26.5 -21t-15.5 -43v-20 q-1 -3 -10.5 -20.5t-11.5 -19.5q0 -39 -5 -64q-3 -13 -17.5 -41t-17.5 -42q0 -4 -3 -25t-4 -24q-1 -1 -11 -21l-11 -22q-4 -29 -5 -42v-3zM1221 -7h-113q-2 0 -36 3.5t-38 3.5q-6 0 -53.5 1t-79.5 1q-34 0 -80.5 -1t-51.5 -1q-21 19 -21 35q0 9 9 27q0 4 3.5 12t8.5 9 q4 0 22.5 3t19.5 4q4 1 22.5 14t20.5 14q1 2 18.5 4.5t22.5 2.5l6 6v35q0 32 -8 67.5t-21 78.5t-18 63q-1 3 -8 35t-8 35q0 3 -6 18t-6 16q-1 3 -4.5 14.5t-6 16.5l-6.5 13t-10 12.5t-14 5.5q-19 7 -51 7l-12 -7q-1 0 -10 -2.5t-12 -2.5h-55q-97 0 -146 -8l-14 -7 q-42 -7 -83 -7l-7 -7l-27 -152q-17 -19 -23 -42.5t-7 -55.5t-5 -48q0 -3 -6.5 -14t-8.5 -13l8 -16q5 -5 12 -19q2 -1 27 -7.5t30 -8.5q1 0 15.5 -3.5t19 -4.5t18.5 -5t20.5 -7l17.5 -8t16.5 -10.5l12.5 -12.5t9.5 -16t2.5 -19v-17q-1 -4 -12 -15t-16 -13q-15 0 -97 -3.5 t-98 -3.5h-139h-138q-1 1 -4 7.5t-5 8.5q-1 6 -4.5 20.5t-5.5 27.5t-2 24q0 18 42 31q28 0 43 6q75 34 95 48l10 16v97q11 1 21 23t18.5 51t12.5 36q1 1 14.5 13t13.5 15q1 2 4 26t3 29q10 25 16 30l12 116q16 22 27 91q7 7 7 21q1 1 8 9.5t8 9.5q3 11 12 64v28q10 23 29 55 q2 3 7 21t5 21q4 5 14 31l9 26q7 20 18 65.5t17 65.5q2 6 20 43t19 61q2 2 2 10q0 6 -1 18.5t-1 13.5q4 5 17 27.5t13 27.5v15v39q3 15 14 29q15 10 20 14l28 18.5t26.5 17t25.5 10t35 4.5q3 0 19 -1t19 -1q31 -26 34 -41q8 -28 15.5 -81.5t14.5 -77.5l5 -14q7 -16 7 -21 v-35q3 -13 13.5 -41.5t13.5 -42.5q3 -5 8.5 -40.5t5.5 -42.5q1 -1 4 -11.5t6.5 -19.5t5.5 -9l40 -161q21 -35 37 -82t21.5 -73.5l17.5 -88.5q5 -10 8 -19q11 -27 31 -83t32 -85q0 -2 -3.5 -22.5t-5.5 -25.5v-9v-5q16 -21 29 -43t22.5 -55t22 -58.5t38.5 -44.5q0 -1 3.5 -4.5 t3.5 -4.5q4 -1 15.5 -7t12.5 -6q8 -2 46 -7t46 -5q41 -20 41 -35q0 -10 -13 -47t-21 -38h-23h-12q-19 0 -29 7zM297 1633q0 17 3.5 30t13.5 26t15.5 18t23.5 19.5l23 18.5q1 0 8.5 8t8.5 10l57 38h32q5 0 26.5 4.5t28.5 7.5q3 0 20 3.5t18 3.5q12 0 99 -19q13 -4 32.5 -17 t50.5 -13q105 0 216 97h47q10 0 10 -31v-5q0 -24 -7 -43q-2 -4 -3 -7q-25 -68 -55 -91t-108 -44q-17 -4 -36 -12.5t-36 -13t-40 -4.5h-52q-19 2 -55.5 21t-67.5 19q-78 0 -126 -21q-13 -4 -48.5 -30.5t-60.5 -26.5q-16 0 -27 18.5t-11 35.5z" />
<glyph unicode="&#xc4;" d="M472 711v-2q0 -2 1.5 -7t2.5 -9.5t1 -5.5q13 -22 21.5 -34.5t25.5 -23.5t37 -11q13 0 35 7.5t35 7.5q12 0 34.5 -4t34.5 -4h7q5 2 23 11t20 9q7 7 7 40q0 20 -14 57.5t-15 41.5l-56 181l-12.5 38t-14.5 45q-9 21 -21 56q-11 14 -14 15q-16 0 -26.5 -21t-15.5 -43v-20 q-1 -3 -10.5 -20.5t-11.5 -19.5q0 -39 -5 -64q-3 -13 -17.5 -41t-17.5 -42q0 -4 -3 -25t-4 -24q-1 -1 -11 -21l-11 -22q-4 -29 -5 -42v-3zM1221 -7h-113q-2 0 -36 3.5t-38 3.5q-6 0 -53.5 1t-79.5 1q-34 0 -80.5 -1t-51.5 -1q-21 19 -21 35q0 9 9 27q0 4 3.5 12t8.5 9 q4 0 22.5 3t19.5 4q4 1 22.5 14t20.5 14q1 2 18.5 4.5t22.5 2.5l6 6v35q0 32 -8 67.5t-21 78.5t-18 63q-1 3 -8 35t-8 35q0 3 -6 18t-6 16q-1 3 -4.5 14.5t-6 16.5l-6.5 13t-10 12.5t-14 5.5q-19 7 -51 7l-12 -7q-1 0 -10 -2.5t-12 -2.5h-55q-97 0 -146 -8l-14 -7 q-42 -7 -83 -7l-7 -7l-27 -152q-17 -19 -23 -42.5t-7 -55.5t-5 -48q0 -3 -6.5 -14t-8.5 -13l8 -16q5 -5 12 -19q2 -1 27 -7.5t30 -8.5q1 0 15.5 -3.5t19 -4.5t18.5 -5t20.5 -7l17.5 -8t16.5 -10.5l12.5 -12.5t9.5 -16t2.5 -19v-17q-1 -4 -12 -15t-16 -13q-15 0 -97 -3.5 t-98 -3.5h-139h-138q-1 1 -4 7.5t-5 8.5q-1 6 -4.5 20.5t-5.5 27.5t-2 24q0 18 42 31q28 0 43 6q75 34 95 48l10 16v97q11 1 21 23t18.5 51t12.5 36q1 1 14.5 13t13.5 15q1 2 4 26t3 29q10 25 16 30l12 116q16 22 27 91q7 7 7 21q1 1 8 9.5t8 9.5q3 11 12 64v28q10 23 29 55 q2 3 7 21t5 21q4 5 14 31l9 26q7 20 18 65.5t17 65.5q2 6 20 43t19 61q2 2 2 10q0 6 -1 18.5t-1 13.5q4 5 17 27.5t13 27.5v15v39q3 15 14 29q15 10 20 14l28 18.5t26.5 17t25.5 10t35 4.5q3 0 19 -1t19 -1q31 -26 34 -41q8 -28 15.5 -81.5t14.5 -77.5l5 -14q7 -16 7 -21 v-35q3 -13 13.5 -41.5t13.5 -42.5q3 -5 8.5 -40.5t5.5 -42.5q1 -1 4 -11.5t6.5 -19.5t5.5 -9l40 -161q21 -35 37 -82t21.5 -73.5l17.5 -88.5q5 -10 8 -19q11 -27 31 -83t32 -85q0 -2 -3.5 -22.5t-5.5 -25.5v-9v-5q16 -21 29 -43t22.5 -55t22 -58.5t38.5 -44.5q0 -1 3.5 -4.5 t3.5 -4.5q4 -1 15.5 -7t12.5 -6q8 -2 46 -7t46 -5q41 -20 41 -35q0 -10 -13 -47t-21 -38h-23h-12q-19 0 -29 7zM403 1680l-3 42q0 9 3 23t4 18q9 28 21.5 42t38.5 14q47 0 81.5 -30t34.5 -74q0 -34 -16 -65.5t-45 -31.5q-72 0 -119 62zM766 1677l-5 40q0 7 3.5 22t3.5 17 q10 63 62 63q47 0 81.5 -31.5t34.5 -74.5q0 -35 -17.5 -67t-46.5 -32q-66 0 -116 63z" />
<glyph unicode="&#xc5;" d="M472 711v-2q0 -2 1.5 -7t2.5 -9.5t1 -5.5q13 -22 21.5 -34.5t25.5 -23.5t37 -11q13 0 35 7.5t35 7.5q12 0 34.5 -4t34.5 -4h7q5 2 23 11t20 9q7 7 7 40q0 20 -14 57.5t-15 41.5l-56 181l-12.5 38t-14.5 45q-9 21 -21 56q-11 14 -14 15q-16 0 -26.5 -21t-15.5 -43v-20 q-1 -3 -10.5 -20.5t-11.5 -19.5q0 -39 -5 -64q-3 -13 -17.5 -41t-17.5 -42q0 -4 -3 -25t-4 -24q-1 -1 -11 -21l-11 -22q-4 -29 -5 -42v-3zM1221 -7h-113q-2 0 -36 3.5t-38 3.5q-6 0 -53.5 1t-79.5 1q-34 0 -80.5 -1t-51.5 -1q-21 19 -21 35q0 9 9 27q0 4 3.5 12t8.5 9 q4 0 22.5 3t19.5 4q4 1 22.5 14t20.5 14q1 2 18.5 4.5t22.5 2.5l6 6v35q0 32 -8 67.5t-21 78.5t-18 63q-1 3 -8 35t-8 35q0 3 -6 18t-6 16q-1 3 -4.5 14.5t-6 16.5l-6.5 13t-10 12.5t-14 5.5q-19 7 -51 7l-12 -7q-1 0 -10 -2.5t-12 -2.5h-55q-97 0 -146 -8l-14 -7 q-42 -7 -83 -7l-7 -7l-27 -152q-17 -19 -23 -42.5t-7 -55.5t-5 -48q0 -3 -6.5 -14t-8.5 -13l8 -16q5 -5 12 -19q2 -1 27 -7.5t30 -8.5q1 0 15.5 -3.5t19 -4.5t18.5 -5t20.5 -7l17.5 -8t16.5 -10.5l12.5 -12.5t9.5 -16t2.5 -19v-17q-1 -4 -12 -15t-16 -13q-15 0 -97 -3.5 t-98 -3.5h-139h-138q-1 1 -4 7.5t-5 8.5q-1 6 -4.5 20.5t-5.5 27.5t-2 24q0 18 42 31q28 0 43 6q75 34 95 48l10 16v97q11 1 21 23t18.5 51t12.5 36q1 1 14.5 13t13.5 15q1 2 4 26t3 29q10 25 16 30l12 116q16 22 27 91q7 7 7 21q1 1 8 9.5t8 9.5q3 11 12 64v28q10 23 29 55 q2 3 7 21t5 21q4 5 14 31l9 26q7 20 18 65.5t17 65.5q2 6 20 43t19 61q2 2 2 10q0 6 -1 18.5t-1 13.5q4 5 17 27.5t13 27.5v15v39q3 15 14 29q15 10 20 14l28 18.5t26.5 17t25.5 10t35 4.5q3 0 19 -1t19 -1q31 -26 34 -41q8 -28 15.5 -81.5t14.5 -77.5l5 -14q7 -16 7 -21 v-35q3 -13 13.5 -41.5t13.5 -42.5q3 -5 8.5 -40.5t5.5 -42.5q1 -1 4 -11.5t6.5 -19.5t5.5 -9l40 -161q21 -35 37 -82t21.5 -73.5l17.5 -88.5q5 -10 8 -19q11 -27 31 -83t32 -85q0 -2 -3.5 -22.5t-5.5 -25.5v-9v-5q16 -21 29 -43t22.5 -55t22 -58.5t38.5 -44.5q0 -1 3.5 -4.5 t3.5 -4.5q4 -1 15.5 -7t12.5 -6q8 -2 46 -7t46 -5q41 -20 41 -35q0 -10 -13 -47t-21 -38h-23h-12q-19 0 -29 7zM462 1674q0 78 50.5 135t125.5 57q65 0 113 -38t74 -102q2 -1 3.5 -6t3 -11.5t2.5 -8.5q0 -98 -50.5 -158t-145.5 -60h-48q-75 43 -92 85l-15 31t-16.5 41 t-4.5 35zM529 1691q0 -12 13 -58.5t25 -50.5q23 0 35 -5q8 -3 28 -16t40 -13q30 0 59.5 47.5t29.5 78.5q0 30 -44.5 72t-69.5 42q-3 0 -40.5 -13l-40.5 -14q-9 -11 -22 -34.5t-13 -35.5z" />
<glyph unicode="&#xc6;" horiz-adv-x="1930" d="M657 747v-3q0 -14 5 -19q3 -10 12 -26t11 -17l9 -2q9 -2 20.5 -3.5t16.5 -1.5h57h28q39 0 65.5 7.5t45.5 33.5q7 63 7 113v14q0 16 -7 48t-7 47v15q0 3 3.5 31t3.5 30v50q0 1 3.5 10.5t3.5 10.5q1 12 1 15q0 14 -10.5 24.5t-25.5 10.5h-9.5t-4.5 -1t-2 -2.5t-1.5 -5 t-3.5 -7.5l-37 -62t-40 -69q0 -3 -5.5 -18t-7.5 -17q-15 -26 -65 -92t-66 -110v-4zM-25 43v19q7 38 27.5 55t53.5 29.5t51 28.5q3 2 28 26.5t29 26.5q8 8 18 15.5t17 12t20 12t19 11.5q3 0 5 2.5t2 3.5q1 1 8 10.5t8 10.5q1 3 15 17t19 18l90 117q9 13 18 39t17 39 q17 27 60 90t64 99q6 8 28 47q7 12 34.5 62.5t43.5 75.5q1 5 19 31.5t23 30.5q4 10 27 54t28 50q9 14 38 46t38 53q1 2 4 23.5t3 24.5q0 2 2.5 10.5t2.5 10.5q2 0 2 3q0 2 -1 6t-1 5h-166q-28 0 -56.5 21t-28.5 48q0 29 85 29h14q8 0 21.5 -7.5t23.5 -7.5q14 0 40.5 4 t40.5 4q10 0 28 -4t29 -4q23 0 38 15h47h45q4 0 31 -3.5t31 -3.5h42h105q38 -2 83 -8q2 0 18 -7t17 -7h22h26q89 20 104 22h75h86q21 -1 33.5 -9t18 -22.5t7 -27t2 -34t1.5 -33.5q0 -2 3.5 -20.5t3.5 -19.5v-50v-48q0 -2 -3.5 -14.5t-3.5 -13.5q-1 -2 -4.5 -25t-3.5 -25 q0 -1 -5.5 -6.5t-6.5 -5.5q-21 3 -37.5 12.5t-28 25t-19 29t-18 36t-17.5 35.5q0 1 -8.5 13.5t-10.5 14.5q-17 28 -41 83q-13 21 -41 31t-45.5 11t-52.5 1q-25 0 -75.5 -11t-76.5 -11q-9 0 -27 4t-28 4q-23 0 -32 -21t-10 -60.5t-2 -46.5q-1 -1 -8 -16t-7 -18v-31 q0 -20 4.5 -53t4.5 -51q0 -24 -4.5 -68.5t-4.5 -66.5v-42q9 -8 9 -27q0 -9 -4.5 -24t-4.5 -23q0 -26 11.5 -38t36.5 -12q32 0 91.5 7t90.5 7q22 0 35 -2q12 5 27 22v69q0 13 16 42q0 2 5 14t7 14q1 3 5.5 22.5t11 30.5t18.5 11q11 0 22 -18t21.5 -43.5t13.5 -30.5 q-4 -34 -4 -111q0 -80 4 -110q0 -4 2.5 -29t2.5 -27v-5v-2q-5 -35 -5 -57q0 -1 -3.5 -12.5t-3.5 -14.5l-2 -2q0 -10 4.5 -26t4.5 -26q0 -43 -38 -43q-20 0 -34 5.5t-22.5 20.5t-11.5 22.5t-8 33l-6 30.5q0 2 -7 20.5t-7 21.5l-1 7l-4 16.5t-3 10.5q0 1 -2 3t-3 2 q-82 30 -151 30h-29q-18 -23 -33 -23h-2q-4 4 -22 16h-4q-11 0 -28 -41.5t-17 -55.5t9 -29q-4 -18 -4 -59t4 -59q0 -3 6 -34t6 -35v-19v-50q0 -11 28 -64q2 -3 9 -18t12 -22.5t14.5 -15t21.5 -7.5q1 0 13 4t14 5h9q21 0 57.5 -8.5t56.5 -8.5h16q50 0 76 17q5 -2 45 -2 q38 0 45 2q2 0 15 3.5t14 3.5q68 10 84 19q26 15 48 71q0 2 3.5 13.5t3.5 12.5q13 34 47.5 78t69.5 76h9q46 0 55 -28q0 -8 2.5 -55t2.5 -56v-78v-76q-6 -21 -33.5 -41.5t-49.5 -20.5h-6q-3 0 -25 3.5t-24 3.5q-1 0 -14 0.5t-28.5 1t-23.5 0.5q-36 0 -107.5 -4.5 t-106.5 -4.5q-23 0 -61.5 8t-59.5 8h-7q-2 -1 -29 -4.5t-30 -4.5h-40q-21 0 -48.5 4.5t-43.5 4.5q-20 0 -61 -8t-63 -8h-14q-40 5 -116 9t-107 7q-16 0 -31.5 15t-15.5 31q0 10 9 17.5t18.5 10t24.5 5t17 2.5q21 8 42 29l21 21q6 29 19 62q14 19 15 21q23 49 23 121 q0 19 -4 61q16 29 16 71v26.5t-2.5 26t-7.5 27.5t-15 17.5t-25 9.5h-64h-68q-84 0 -131 -5q-17 -10 -19 -14q-59 -80 -78 -119q-6 -6 -14 -35q-21 -61 -35 -90q-4 -10 -14 -24t-16 -26.5t-6 -27.5q0 -35 21 -64t45.5 -45.5t45.5 -39.5t21 -48q0 -14 -10 -29.5t-24 -15.5 h-306q-13 -5 -35 -5h-17q-14 0 -25 -2q-1 0 -16 -3.5t-18 -3.5h-21h-21q-5 0 -35.5 6.5t-33.5 7.5q-21 6 -21 36v7z" />
<glyph unicode="&#xc7;" horiz-adv-x="1362" d="M562 -515q2 4 7.5 13l11.5 19t7 11q1 2 8.5 5.5t8.5 3.5h71q31 24 44 36l4 3l4 4q4 4 10 13l10.5 15.5t5.5 7.5v17q0 2 -7 33t-8 38q-7 21 -19 26q-1 1 -10 4l-19.5 6.5t-14.5 5.5q-25 10 -26 10h-17q-18 -5 -68.5 -30t-81.5 -25q0 31 10 45q39 54 61 79q3 4 34 35 q27 27 52 62q10 10 10 26v7l23 40q-122 8 -219 40q-16 4 -29 24t-22 26q-3 1 -16.5 9l-30 17.5t-22.5 13.5q-3 2 -7 4t-5.5 2.5t-4 2.5t-4.5 5t-6 8q-2 2 -14 20t-14 22q-19 15 -35 34q-20 27 -26 40q-50 83 -70 147t-21 152l-16 28l-3 22q-2 23 -5 52.5t-4 44.5v28 q12 144 21 180q4 28 17.5 59t25 49.5t33.5 50.5q5 9 38.5 56.5t37.5 54.5q35 19 87.5 68t71.5 63q3 3 12.5 9t10.5 7l12 4q13 3 15 3q3 0 41 13t42 14q48 14 149 14h164l77 -20l39.5 -16.5l44 -18.5t40.5 -14h2q20 0 56 14.5t55 14.5q17 0 17 -38q0 -7 -1 -19t-1 -15t2 -14 t2 -12v-76q1 -18 12.5 -54t11.5 -57q0 -50 -9 -77t-43 -42q-16 -9 -28 -9l-57 29q-3 11 -5 14q-3 10 -24 72.5t-24 73.5q-2 3 -20.5 27.5t-23.5 29.5q-36 35 -46 39q-10 7 -58 7q-1 0 -9.5 4t-9.5 5h-34q-3 0 -16 19q0 3 2.5 13t2.5 11q-2 0 -14.5 2.5t-16.5 2.5h-1 q-1 0 -6.5 -6.5t-7.5 -6.5q-20 -16 -28 -16h-55q-2 0 -11 -2.5t-10 -2.5h-10q-7 0 -19.5 2.5t-18.5 2.5q-31 0 -56 -19l-34.5 -35t-36.5 -36q-10 -5 -12 -7q-4 -2 -18 -13.5t-16 -14.5q-10 -11 -36.5 -50.5t-33.5 -52.5q-1 0 -5 -10t-9 -24t-8 -20q0 -7 -12 -43 q-11 -14 -23 -49v-77q0 -17 -12 -47v-154q6 -9 7.5 -25.5t4.5 -23.5l7 -5q8 -18 13 -40.5t8.5 -50.5t6.5 -42q0 -1 3.5 -7t3.5 -7l18 -41.5t20 -44.5t20 -37t28 -40t33 -32q35 -28 55 -35q3 -1 31.5 -6t31.5 -6q6 -4 19 -17.5t15 -17.5q21 -7 70 -7q40 -8 41 -8 q30 2 61.5 17.5t49.5 37.5q7 14 8 14q7 10 28 10q5 0 12.5 -0.5t10.5 -0.5h3q13 0 16 7q7 13 34 39q2 5 13.5 26.5t14.5 24.5l16 21.5t18.5 26.5t13.5 28q10 24 28 97l3 16q4 16 4 18q15 69 78 69q37 0 53 -26t16 -64q0 -26 -9 -41v-154q9 -10 9 -19v-7q-1 -2 -10 -29 t-12 -33q-1 -2 -2.5 -6t-3 -6.5t-1.5 -3.5q-26 -19 -76 -26.5t-71 -20.5q-3 -4 -20.5 -18.5t-19.5 -15.5q-51 -39 -99 -50q-125 -34 -144 -37q-2 -7 -15 -32q-4 -8 -14.5 -22t-16.5 -25.5t-6 -23.5v-9q5 -7 11 -9q30 -21 32 -26q7 -2 45 -17q7 -3 13.5 -7.5l11.5 -8 t10 -10.5t8 -10t8 -12t6 -12t6.5 -14.5l6.5 -13.5q19 -41 19 -99l-2 -22q-1 -8 -14.5 -35t-20.5 -36q-50 -50 -60 -59q-1 -1 -37 -19l-11 -8q-12 -8 -14 -9l-52 -26q-26 -2 -37 -2q-6 0 -25 1l-18 1q-10 1 -35 26q-1 2 -8.5 13t-8.5 13z" />
<glyph unicode="&#xc8;" horiz-adv-x="1450" d="M510 1263v-2v2zM68 47v1q0 15 14 31t32 16q4 0 19 1t23 1h20.5t15.5 -0.5t10 -1t6 -0.5h3h11q83 0 93 31v50q0 91 7 167q2 16 10 43q-1 3 -1 15q0 26 3 80q0 3 3 12q0 28 4 80q0 1 -7 38q-7 42 -7 62v111q-5 5 -5 34q5 70 5 109q0 6 4 16q0 3 1.5 9t1.5 8q0 14 -7 35 q-5 17 -5 34q0 40 2 59q3 57 3 59q0 8 -1.5 29.5t-1.5 29.5q-2 21 -2 50q-8 20 -42.5 29t-64.5 9q-5 0 -23 -5q-18 -4 -26 -4q-34 0 -66 12.5t-32 39.5q0 26 10 28q25 8 52 10q12 -1 88 -5q54 -3 90 -3q19 -7 66 -7q15 3 24 5q5 2 12 2h118q6 0 19 3q14 4 19 5h304 q35 0 71 -5q18 -3 30 -3q27 0 53 3q45 5 52 5q16 0 33 -2t26.5 -3.5t9.5 -2.5q6 0 33.5 -3t30.5 -4q30 -7 38 -52q7 -31 7 -75q0 -98 -5 -124q-1 -9 -3 -21.5t-3 -20t-1 -8.5v-28q0 -21 -10 -35q-4 -1 -21 -1q-30 0 -70.5 53t-64.5 101l-19 43q-18 41 -21 43q-20 31 -43 31 h-173q-34 12 -133 16q-5 0 -71 3q-10 0 -33 7q-23 9 -36 9q-12 0 -30 -28q-5 -5 -5 -8q2 -14 2 -87q0 -74 -2 -86q0 -20 -5 -33q-7 -28 -7 -42q6 -27 9 -38q12 -41 12 -79q0 -15 -4 -51l-5 -51v-35l5 -9q0 -3 40 -3q7 -2 52 -2t54 2l2 -1q2 -1 3 -1q10 -7 31 -7q11 0 31 4 q3 0 13.5 2.5t21.5 2.5q19 -4 27 -5q18 -4 26 -4q22 0 35.5 22t18.5 49q0 67 7 76l12 27v-1v9q6 34 19 38q2 2 16.5 7t19.5 5q17 0 30.5 -12t18.5 -24v-237q0 -19 2 -35q0 -7 1 -15t1.5 -13t0.5 -7q0 -7 -10 -69q-9 -44 -9 -62q-3 -10 -3 -24q-2 -21 -3.5 -30t-7 -24.5 t-16 -22t-27.5 -6.5q-48 0 -50 86q0 2 -1 7.5t-1 6.5q-4 23 -6.5 34.5t-10 33.5t-15.5 34t-22 23t-31 13l-38 4q-9 1 -34 2.5t-32 2.5q-12 0 -31 -1t-26 -1q-24 0 -27 2q-7 0 -11 2q-10 3 -14 3h-17q-14 0 -28 -10l-17 -10h-29q1 -9 1 -28q0 -7 -3 -14q-1 -3 -3.5 -9 t-4 -10.5t-1.5 -6.5q0 -3 4 -21q2 -5 2 -10q1 -2 6 -55q2 -2 2 -9v-2q7 -4 7 -5q9 -24 14 -62q5 -47 5 -153v-103q2 -18 12.5 -30t29.5 -16.5t33.5 -6t35.5 -1.5h34q17 5 96 5q2 0 9 1t11 1q52 5 61 7q7 2 12 5q10 4 16 7q5 0 17.5 -5.5t14.5 -8.5q16 -2 63 -2q59 0 60 2 q4 2 6 2q28 0 51 14l13 8h-2q12 6 36 11q27 6 33 12q1 1 4 3t5 4l15 13l16 14t8 7q2 2 6 11q5 13 7 15q16 37 24 52.5t26.5 35.5t45.5 32q4 0 16 7l17 7q4 0 12.5 -7.5t8.5 -11.5v-35q0 -1 5 -16q11 -26 11 -33v-29q0 -55 -7 -125q-6 -26 -22 -43t-41 -24.5t-46 -9.5t-50 -2 h-87q-12 9 -35 9q-1 0 -15 -4q-14 -5 -19 -5q-30 -7 -94 -7h-479q-17 0 -38 7q-4 1 -11.5 3.5t-13 4t-8.5 1.5t-15 -4q-1 0 -3.5 -0.5t-6 -1.5t-6.5 -1q-7 -2 -15 -2q-7 0 -47 -9q-67 -12 -69 -12h-21l-139 -3q-4 0 -13 25t-12 39zM274 1703q-6 17 -6 32q0 28 17 51.5 t44 34.5q17 7 36 7q46 0 127 -49q2 -1 6.5 -3.5t6.5 -3.5q6 -2 28 -17t28 -23q7 -4 32 -29q11 -4 15 -6q4 -1 20 -5.5t28 -9t20 -10.5q4 -1 27.5 -17.5t28.5 -21.5q26 -7 53 -21q12 -9 32 -42.5t27 -51.5q-48 -20 -79 -20q-15 0 -24 4q-1 3 -13 15q-1 1 -7 1q-4 0 -12 -0.5 t-11 -0.5q-12 0 -33 12.5t-31 12.5q-1 1 -9 1h-15h-4q-24 5 -76 26t-60 24q-3 1 -64.5 26t-69.5 27q-50 25 -62 57z" />
</font>
</defs>
</svg>
